找回密码

蓝光电影网

查看: 108|回复: 1

[2160p-WEB] 寻找传家宝[中文字幕].Finding.Ohana.2021.2160p.NF.WEB-DL.x265.10bit.SDR.DDP5.1.Atmos-CM 10.46GB

[复制链接]
蓝光币
1080
发表于 2023-1-10 16:18:21 | 显示全部楼层 |阅读模式


◎标  题 寻觅传家宝
◎译  名 'Ohana:寻觅传家宝(港 / 台)
◎片  名 Finding Ohana
◎年  代 2021
◎产  地 美国
◎类  别 家庭
◎语  言 英语
◎上映日期 2021-01-29(美国收集)
◎IMDb评分 6.1/10 (9145人评价)
◎IMDb链接 https://www.imdb.com/title/tt10332588/
◎豆瓣评分 5.7/10 (213人评价)
◎豆瓣链接 https://movie.douban.com/subject/35014675/
◎导  演 翁菲菲 Jude Weng
◎编  剧 克里斯蒂娜·斯特兰 Christina Strain
◎演  员 胡凯莉 Kelly Hu
       关继威 Jonathan Ke Quan
       克里斯·帕内尔 Chris Parnell
       马克·埃文·杰克逊 Marc Evan Jackson
       布兰斯康比·里奇蒙德 Branscombe Richmond
       欧文·瓦卡罗 Owen Vaccaro
       瑞奇·加西亚 Ricky Garcia
       Ryan Higa Ryan Higa
       亚历克斯·艾欧诺 Alex Aiono
       约瑟夫·特雷帕尼斯 Joseph Trapanese
◎标  签 冒险 / 美国 / 儿童 / 家庭 / 笑剧 / 美国电影 / 奇异 / Netflix
◎简  介
  两位布鲁克林长大的兄妹来到瓦胡岛乡下,他们发现一本记录了丢失已久的宝藏的日志,这个炎天变得冲动听心。两人与新朋友们踏上一场史诗般的冒险,并让他们重新熟悉了夏威夷人的文化和传统。
  1. Video
  2. ID                                       : 1
  3. Format                                   : HEVC
  4. Format/Info                              : High Efficiency Video Coding
  5. Format profile                           : Main [email protected]@Main
  6. Codec ID                                 : V_MPEGH/ISO/HEVC
  7. Duration                                 : 2 h 3 min
  8. Bit rate                                 : 11.4 Mb/s
  9. Width                                    : 3 840 pixels
  10. Height                                   : 2 160 pixels
  11. Display aspect ratio                     : 16:9
  12. Frame rate mode                          : Constant
  13. Frame rate                               : 24.000 FPS
  14. Color space                              : YUV
  15. Chroma subsampling                       : 4:2:0
  16. Bit depth                                : 10 bits
  17. Bits/(Pixel*Frame)                       : 0.057
  18. Stream size                              : 9.79 GiB (94%)
  19. Default                                  : Yes
  20. Forced                                   : No
  21. Color range                              : Limited
  22. Color primaries                          : BT.709
  23. Transfer characteristics                 : BT.709
  24. Matrix coefficients                      : BT.709
  25. Audio
  26. ID                                       : 2
  27. Format                                   : E-AC-3 JOC
  28. Format/Info                              : Enhanced AC-3 with Joint Object Coding
  29. Commercial name                          : Dolby Digital Plus with Dolby Atmos
  30. Codec ID                                 : A_EAC3
  31. Duration                                 : 2 h 3 min
  32. Bit rate mode                            : Constant
  33. Bit rate                                 : 768 kb/s
  34. Channel(s)                               : 6 channels
  35. Channel layout                           : L R C LFE Ls Rs
  36. Sampling rate                            : 48.0 kHz
  37. Frame rate                               : 31.250 FPS (1536 SPF)
  38. Compression mode                         : Lossy
  39. Stream size                              : 677 MiB (6%)
  40. Title                                    : English
  41. Language                                 : English
  42. Service kind                             : Complete Main
  43. Default                                  : No
  44. Forced                                   : No
  45. Complexity index                         : 16
  46. Number of dynamic objects                : 15
  47. Bed channel count                        : 1 channel
  48. Bed channel configuration                : LFE
  49. Text #1
  50. ID                                       : 3
  51. Format                                   : UTF-8
  52. Codec ID                                 : S_TEXT/UTF8
  53. Codec ID/Info                            : UTF-8 Plain Text
  54. Duration                                 : 1 h 52 min
  55. Bit rate                                 : 108 b/s
  56. Frame rate                               : 0.228 FPS
  57. Count of elements                        : 1542
  58. Stream size                              : 89.5 KiB (0%)
  59. Title                                    : Arabic
  60. Language                                 : Arabic
  61. Default                                  : No
  62. Forced                                   : No
  63. Text #2
  64. ID                                       : 4
  65. Format                                   : UTF-8
  66. Codec ID                                 : S_TEXT/UTF8
  67. Codec ID/Info                            : UTF-8 Plain Text
  68. Duration                                 : 1 h 59 min
  69. Bit rate                                 : 63 b/s
  70. Frame rate                               : 0.216 FPS
  71. Count of elements                        : 1551
  72. Stream size                              : 55.4 KiB (0%)
  73. Title                                    : Chinese Simplified
  74. Language                                 : Chinese
  75. Default                                  : No
  76. Forced                                   : No
  77. Text #3
  78. ID                                       : 5
  79. Format                                   : UTF-8
  80. Codec ID                                 : S_TEXT/UTF8
  81. Codec ID/Info                            : UTF-8 Plain Text
  82. Duration                                 : 1 h 52 min
  83. Bit rate                                 : 68 b/s
  84. Frame rate                               : 0.228 FPS
  85. Count of elements                        : 1548
  86. Stream size                              : 56.4 KiB (0%)
  87. Title                                    : Chinese Traditional
  88. Language                                 : Chinese
  89. Default                                  : No
  90. Forced                                   : No
  91. Text #4
  92. ID                                       : 6
  93. Format                                   : UTF-8
  94. Codec ID                                 : S_TEXT/UTF8
  95. Codec ID/Info                            : UTF-8 Plain Text
  96. Duration                                 : 1 h 59 min
  97. Bit rate                                 : 50 b/s
  98. Frame rate                               : 0.224 FPS
  99. Count of elements                        : 1613
  100. Stream size                              : 44.3 KiB (0%)
  101. Title                                    : Czech
  102. Language                                 : Czech
  103. Default                                  : No
  104. Forced                                   : No
  105. Text #5
  106. ID                                       : 7
  107. Format                                   : UTF-8
  108. Codec ID                                 : S_TEXT/UTF8
  109. Codec ID/Info                            : UTF-8 Plain Text
  110. Duration                                 : 1 h 59 min
  111. Bit rate                                 : 49 b/s
  112. Frame rate                               : 0.201 FPS
  113. Count of elements                        : 1447
  114. Stream size                              : 43.0 KiB (0%)
  115. Title                                    : Danish
  116. Language                                 : Danish
  117. Default                                  : No
  118. Forced                                   : No
  119. Text #6
  120. ID                                       : 8
  121. Format                                   : UTF-8
  122. Codec ID                                 : S_TEXT/UTF8
  123. Codec ID/Info                            : UTF-8 Plain Text
  124. Duration                                 : 1 h 59 min
  125. Bit rate                                 : 51 b/s
  126. Frame rate                               : 0.182 FPS
  127. Count of elements                        : 1304
  128. Stream size                              : 45.2 KiB (0%)
  129. Title                                    : Dutch
  130. Language                                 : Dutch
  131. Default                                  : No
  132. Forced                                   : No
  133. Text #7
  134. ID                                       : 9
  135. Format                                   : UTF-8
  136. Codec ID                                 : S_TEXT/UTF8
  137. Codec ID/Info                            : UTF-8 Plain Text
  138. Duration                                 : 1 h 59 min
  139. Bit rate                                 : 64 b/s
  140. Frame rate                               : 0.256 FPS
  141. Count of elements                        : 1839
  142. Stream size                              : 56.7 KiB (0%)
  143. Title                                    : English [SDH]
  144. Language                                 : English
  145. Default                                  : No
  146. Forced                                   : No
  147. Text #8
  148. ID                                       : 10
  149. Format                                   : UTF-8
  150. Codec ID                                 : S_TEXT/UTF8
  151. Codec ID/Info                            : UTF-8 Plain Text
  152. Duration                                 : 1 h 44 min
  153. Bit rate                                 : 0 b/s
  154. Frame rate                               : 0.004 FPS
  155. Count of elements                        : 24
  156. Stream size                              : 551 Bytes (0%)
  157. Title                                    : English [Forced]
  158. Language                                 : English
  159. Default                                  : No
  160. Forced                                   : Yes
  161. Text #9
  162. ID                                       : 11
  163. Format                                   : UTF-8
  164. Codec ID                                 : S_TEXT/UTF8
  165. Codec ID/Info                            : UTF-8 Plain Text
  166. Duration                                 : 1 h 54 min
  167. Bit rate                                 : 57 b/s
  168. Frame rate                               : 0.230 FPS
  169. Count of elements                        : 1576
  170. Stream size                              : 47.8 KiB (0%)
  171. Title                                    : English
  172. Language                                 : English
  173. Default                                  : No
  174. Forced                                   : No
  175. Text #10
  176. ID                                       : 12
  177. Format                                   : UTF-8
  178. Codec ID                                 : S_TEXT/UTF8
  179. Codec ID/Info                            : UTF-8 Plain Text
  180. Duration                                 : 1 h 59 min
  181. Bit rate                                 : 52 b/s
  182. Frame rate                               : 0.199 FPS
  183. Count of elements                        : 1433
  184. Stream size                              : 46.0 KiB (0%)
  185. Title                                    : Finnish
  186. Language                                 : Finnish
  187. Default                                  : No
  188. Forced                                   : No
  189. Text #11
  190. ID                                       : 13
  191. Format                                   : UTF-8
  192. Codec ID                                 : S_TEXT/UTF8
  193. Codec ID/Info                            : UTF-8 Plain Text
  194. Duration                                 : 1 h 59 min
  195. Bit rate                                 : 71 b/s
  196. Frame rate                               : 0.256 FPS
  197. Count of elements                        : 1829
  198. Stream size                              : 62.1 KiB (0%)
  199. Title                                    : French [SDH]
  200. Language                                 : French
  201. Default                                  : No
  202. Forced                                   : No
  203. Text #12
  204. ID                                       : 14
  205. Format                                   : UTF-8
  206. Codec ID                                 : S_TEXT/UTF8
  207. Codec ID/Info                            : UTF-8 Plain Text
  208. Duration                                 : 1 h 52 min
  209. Bit rate                                 : 67 b/s
  210. Frame rate                               : 0.243 FPS
  211. Count of elements                        : 1647
  212. Stream size                              : 55.7 KiB (0%)
  213. Title                                    : French
  214. Language                                 : French
  215. Default                                  : No
  216. Forced                                   : No
  217. Text #13
  218. ID                                       : 15
  219. Format                                   : UTF-8
  220. Codec ID                                 : S_TEXT/UTF8
  221. Codec ID/Info                            : UTF-8 Plain Text
  222. Duration                                 : 1 h 59 min
  223. Bit rate                                 : 72 b/s
  224. Frame rate                               : 0.274 FPS
  225. Count of elements                        : 1959
  226. Stream size                              : 63.5 KiB (0%)
  227. Title                                    : German [SDH]
  228. Language                                 : German
  229. Default                                  : No
  230. Forced                                   : No
  231. Text #14
  232. ID                                       : 16
  233. Format                                   : UTF-8
  234. Codec ID                                 : S_TEXT/UTF8
  235. Codec ID/Info                            : UTF-8 Plain Text
  236. Duration                                 : 1 h 54 min
  237. Bit rate                                 : 63 b/s
  238. Frame rate                               : 0.237 FPS
  239. Count of elements                        : 1632
  240. Stream size                              : 53.5 KiB (0%)
  241. Title                                    : German
  242. Language                                 : German
  243. Default                                  : No
  244. Forced                                   : No
  245. Text #15
  246. ID                                       : 17
  247. Format                                   : UTF-8
  248. Codec ID                                 : S_TEXT/UTF8
  249. Codec ID/Info                            : UTF-8 Plain Text
  250. Duration                                 : 1 h 59 min
  251. Bit rate                                 : 85 b/s
  252. Frame rate                               : 0.233 FPS
  253. Count of elements                        : 1671
  254. Stream size                              : 75.0 KiB (0%)
  255. Title                                    : Greek
  256. Language                                 : Greek
  257. Default                                  : No
  258. Forced                                   : No
  259. Text #16
  260. ID                                       : 18
  261. Format                                   : UTF-8
  262. Codec ID                                 : S_TEXT/UTF8
  263. Codec ID/Info                            : UTF-8 Plain Text
  264. Duration                                 : 1 h 59 min
  265. Bit rate                                 : 87 b/s
  266. Frame rate                               : 0.214 FPS
  267. Count of elements                        : 1540
  268. Stream size                              : 76.7 KiB (0%)
  269. Title                                    : Hebrew
  270. Language                                 : Hebrew
  271. Default                                  : No
  272. Forced                                   : No
  273. Text #17
  274. ID                                       : 19
  275. Format                                   : UTF-8
  276. Codec ID                                 : S_TEXT/UTF8
  277. Codec ID/Info                            : UTF-8 Plain Text
  278. Duration                                 : 1 h 59 min
  279. Bit rate                                 : 47 b/s
  280. Frame rate                               : 0.211 FPS
  281. Count of elements                        : 1514
  282. Stream size                              : 41.7 KiB (0%)
  283. Title                                    : Croatian
  284. Language                                 : Croatian
  285. Default                                  : No
  286. Forced                                   : No
  287. Text #18
  288. ID                                       : 20
  289. Format                                   : UTF-8
  290. Codec ID                                 : S_TEXT/UTF8
  291. Codec ID/Info                            : UTF-8 Plain Text
  292. Duration                                 : 1 h 59 min
  293. Bit rate                                 : 53 b/s
  294. Frame rate                               : 0.203 FPS
  295. Count of elements                        : 1460
  296. Stream size                              : 47.3 KiB (0%)
  297. Title                                    : Hungarian
  298. Language                                 : Hungarian
  299. Default                                  : No
  300. Forced                                   : No
  301. Text #19
  302. ID                                       : 21
  303. Format                                   : UTF-8
  304. Codec ID                                 : S_TEXT/UTF8
  305. Codec ID/Info                            : UTF-8 Plain Text
  306. Duration                                 : 1 h 59 min
  307. Bit rate                                 : 49 b/s
  308. Frame rate                               : 0.214 FPS
  309. Count of elements                        : 1539
  310. Stream size                              : 43.4 KiB (0%)
  311. Title                                    : Indonesian
  312. Language                                 : Indonesian
  313. Default                                  : No
  314. Forced                                   : No
  315. Text #20
  316. ID                                       : 22
  317. Format                                   : UTF-8
  318. Codec ID                                 : S_TEXT/UTF8
  319. Codec ID/Info                            : UTF-8 Plain Text
  320. Duration                                 : 1 h 59 min
  321. Bit rate                                 : 66 b/s
  322. Frame rate                               : 0.249 FPS
  323. Count of elements                        : 1781
  324. Stream size                              : 58.1 KiB (0%)
  325. Title                                    : Italian [SDH]
  326. Language                                 : Italian
  327. Default                                  : No
  328. Forced                                   : No
  329. Text #21
  330. ID                                       : 23
  331. Format                                   : UTF-8
  332. Codec ID                                 : S_TEXT/UTF8
  333. Codec ID/Info                            : UTF-8 Plain Text
  334. Duration                                 : 1 h 54 min
  335. Bit rate                                 : 61 b/s
  336. Frame rate                               : 0.234 FPS
  337. Count of elements                        : 1604
  338. Stream size                              : 51.6 KiB (0%)
  339. Title                                    : Italian
  340. Language                                 : Italian
  341. Default                                  : No
  342. Forced                                   : No
  343. Text #22
  344. ID                                       : 24
  345. Format                                   : UTF-8
  346. Codec ID                                 : S_TEXT/UTF8
  347. Codec ID/Info                            : UTF-8 Plain Text
  348. Duration                                 : 1 h 59 min
  349. Bit rate                                 : 48 b/s
  350. Frame rate                               : 0.223 FPS
  351. Count of elements                        : 1603
  352. Stream size                              : 42.4 KiB (0%)
  353. Title                                    : Japanese
  354. Language                                 : Japanese
  355. Default                                  : No
  356. Forced                                   : No
  357. Text #23
  358. ID                                       : 25
  359. Format                                   : UTF-8
  360. Codec ID                                 : S_TEXT/UTF8
  361. Codec ID/Info                            : UTF-8 Plain Text
  362. Duration                                 : 1 h 59 min
  363. Bit rate                                 : 68 b/s
  364. Frame rate                               : 0.222 FPS
  365. Count of elements                        : 1594
  366. Stream size                              : 60.1 KiB (0%)
  367. Title                                    : Korean
  368. Language                                 : Korean
  369. Default                                  : No
  370. Forced                                   : No
  371. Text #24
  372. ID                                       : 26
  373. Format                                   : UTF-8
  374. Codec ID                                 : S_TEXT/UTF8
  375. Codec ID/Info                            : UTF-8 Plain Text
  376. Duration                                 : 1 h 59 min
  377. Bit rate                                 : 48 b/s
  378. Frame rate                               : 0.215 FPS
  379. Count of elements                        : 1543
  380. Stream size                              : 42.9 KiB (0%)
  381. Title                                    : Malay
  382. Language                                 : Malay
  383. Default                                  : No
  384. Forced                                   : No
  385. Text #25
  386. ID                                       : 27
  387. Format                                   : UTF-8
  388. Codec ID                                 : S_TEXT/UTF8
  389. Codec ID/Info                            : UTF-8 Plain Text
  390. Duration                                 : 1 h 59 min
  391. Bit rate                                 : 45 b/s
  392. Frame rate                               : 0.197 FPS
  393. Count of elements                        : 1418
  394. Stream size                              : 39.9 KiB (0%)
  395. Title                                    : Norwegian Bokmal
  396. Language                                 : Norwegian Bokmal
  397. Default                                  : No
  398. Forced                                   : No
  399. Text #26
  400. ID                                       : 28
  401. Format                                   : UTF-8
  402. Codec ID                                 : S_TEXT/UTF8
  403. Codec ID/Info                            : UTF-8 Plain Text
  404. Duration                                 : 1 h 59 min
  405. Bit rate                                 : 49 b/s
  406. Frame rate                               : 0.215 FPS
  407. Count of elements                        : 1541
  408. Stream size                              : 43.8 KiB (0%)
  409. Title                                    : Filipino
  410. Language                                 : phi
  411. Default                                  : No
  412. Forced                                   : No
  413. Text #27
  414. ID                                       : 29
  415. Format                                   : UTF-8
  416. Codec ID                                 : S_TEXT/UTF8
  417. Codec ID/Info                            : UTF-8 Plain Text
  418. Duration                                 : 1 h 59 min
  419. Bit rate                                 : 49 b/s
  420. Frame rate                               : 0.211 FPS
  421. Count of elements                        : 1519
  422. Stream size                              : 43.8 KiB (0%)
  423. Title                                    : Polish
  424. Language                                 : Polish
  425. Default                                  : No
  426. Forced                                   : No
  427. Text #28
  428. ID                                       : 30
  429. Format                                   : UTF-8
  430. Codec ID                                 : S_TEXT/UTF8
  431. Codec ID/Info                            : UTF-8 Plain Text
  432. Duration                                 : 1 h 58 min
  433. Bit rate                                 : 64 b/s
  434. Frame rate                               : 0.248 FPS
  435. Count of elements                        : 1765
  436. Stream size                              : 56.4 KiB (0%)
  437. Title                                    : Brazilian Portuguese [SDH]
  438. Language                                 : Portuguese
  439. Default                                  : No
  440. Forced                                   : No
  441. Text #29
  442. ID                                       : 31
  443. Format                                   : UTF-8
  444. Codec ID                                 : S_TEXT/UTF8
  445. Codec ID/Info                            : UTF-8 Plain Text
  446. Duration                                 : 1 h 52 min
  447. Bit rate                                 : 62 b/s
  448. Frame rate                               : 0.242 FPS
  449. Count of elements                        : 1632
  450. Stream size                              : 51.6 KiB (0%)
  451. Title                                    : Brazilian Portuguese
  452. Language                                 : Portuguese
  453. Default                                  : No
  454. Forced                                   : No
  455. Text #30
  456. ID                                       : 32
  457. Format                                   : UTF-8
  458. Codec ID                                 : S_TEXT/UTF8
  459. Codec ID/Info                            : UTF-8 Plain Text
  460. Duration                                 : 1 h 59 min
  461. Bit rate                                 : 49 b/s
  462. Frame rate                               : 0.210 FPS
  463. Count of elements                        : 1506
  464. Stream size                              : 43.7 KiB (0%)
  465. Title                                    : Portuguese
  466. Language                                 : Portuguese
  467. Default                                  : No
  468. Forced                                   : No
  469. Text #31
  470. ID                                       : 33
  471. Format                                   : UTF-8
  472. Codec ID                                 : S_TEXT/UTF8
  473. Codec ID/Info                            : UTF-8 Plain Text
  474. Duration                                 : 1 h 59 min
  475. Bit rate                                 : 59 b/s
  476. Frame rate                               : 0.213 FPS
  477. Count of elements                        : 1533
  478. Stream size                              : 51.8 KiB (0%)
  479. Title                                    : Romanian
  480. Language                                 : Romanian
  481. Default                                  : No
  482. Forced                                   : No
  483. Text #32
  484. ID                                       : 34
  485. Format                                   : UTF-8
  486. Codec ID                                 : S_TEXT/UTF8
  487. Codec ID/Info                            : UTF-8 Plain Text
  488. Duration                                 : 1 h 59 min
  489. Bit rate                                 : 85 b/s
  490. Frame rate                               : 0.218 FPS
  491. Count of elements                        : 1565
  492. Stream size                              : 74.7 KiB (0%)
  493. Title                                    : Russian
  494. Language                                 : Russian
  495. Default                                  : No
  496. Forced                                   : No
  497. Text #33
  498. ID                                       : 35
  499. Format                                   : UTF-8
  500. Codec ID                                 : S_TEXT/UTF8
  501. Codec ID/Info                            : UTF-8 Plain Text
  502. Duration                                 : 1 h 59 min
  503. Bit rate                                 : 49 b/s
  504. Frame rate                               : 0.218 FPS
  505. Count of elements                        : 1569
  506. Stream size                              : 43.1 KiB (0%)
  507. Title                                    : European Spanish
  508. Language                                 : Spanish
  509. Default                                  : No
  510. Forced                                   : No
  511. Text #34
  512. ID                                       : 36
  513. Format                                   : UTF-8
  514. Codec ID                                 : S_TEXT/UTF8
  515. Codec ID/Info                            : UTF-8 Plain Text
  516. Duration                                 : 2 h 0 min
  517. Bit rate                                 : 65 b/s
  518. Frame rate                               : 0.248 FPS
  519. Count of elements                        : 1787
  520. Stream size                              : 57.6 KiB (0%)
  521. Title                                    : Spanish [SDH]
  522. Language                                 : Spanish
  523. Default                                  : No
  524. Forced                                   : No
  525. Text #35
  526. ID                                       : 37
  527. Format                                   : UTF-8
  528. Codec ID                                 : S_TEXT/UTF8
  529. Codec ID/Info                            : UTF-8 Plain Text
  530. Duration                                 : 1 h 59 min
  531. Bit rate                                 : 57 b/s
  532. Frame rate                               : 0.217 FPS
  533. Count of elements                        : 1562
  534. Stream size                              : 50.1 KiB (0%)
  535. Title                                    : Spanish
  536. Language                                 : Spanish
  537. Default                                  : No
  538. Forced                                   : No
  539. Text #36
  540. ID                                       : 38
  541. Format                                   : UTF-8
  542. Codec ID                                 : S_TEXT/UTF8
  543. Codec ID/Info                            : UTF-8 Plain Text
  544. Duration                                 : 1 h 59 min
  545. Bit rate                                 : 51 b/s
  546. Frame rate                               : 0.193 FPS
  547. Count of elements                        : 1389
  548. Stream size                              : 44.9 KiB (0%)
  549. Title                                    : Swedish
  550. Language                                 : Swedish
  551. Default                                  : No
  552. Forced                                   : No
  553. Text #37
  554. ID                                       : 39
  555. Format                                   : UTF-8
  556. Codec ID                                 : S_TEXT/UTF8
  557. Codec ID/Info                            : UTF-8 Plain Text
  558. Duration                                 : 1 h 59 min
  559. Bit rate                                 : 142 b/s
  560. Frame rate                               : 0.216 FPS
  561. Count of elements                        : 1549
  562. Stream size                              : 125 KiB (0%)
  563. Title                                    : Thai
  564. Language                                 : Thai
  565. Default                                  : No
  566. Forced                                   : No
  567. Text #38
  568. ID                                       : 40
  569. Format                                   : UTF-8
  570. Codec ID                                 : S_TEXT/UTF8
  571. Codec ID/Info                            : UTF-8 Plain Text
  572. Duration                                 : 1 h 59 min
  573. Bit rate                                 : 51 b/s
  574. Frame rate                               : 0.215 FPS
  575. Count of elements                        : 1541
  576. Stream size                              : 45.5 KiB (0%)
  577. Title                                    : Turkish
  578. Language                                 : Turkish
  579. Default                                  : No
  580. Forced                                   : No
  581. Text #39
  582. ID                                       : 41
  583. Format                                   : UTF-8
  584. Codec ID                                 : S_TEXT/UTF8
  585. Codec ID/Info                            : UTF-8 Plain Text
  586. Duration                                 : 1 h 59 min
  587. Bit rate                                 : 78 b/s
  588. Frame rate                               : 0.217 FPS
  589. Count of elements                        : 1560
  590. Stream size                              : 69.2 KiB (0%)
  591. Title                                    : Ukrainian
  592. Language                                 : Ukrainian
  593. Default                                  : No
  594. Forced                                   : No
  595. Text #40
  596. ID                                       : 42
  597. Format                                   : UTF-8
  598. Codec ID                                 : S_TEXT/UTF8
  599. Codec ID/Info                            : UTF-8 Plain Text
  600. Duration                                 : 1 h 59 min
  601. Bit rate                                 : 73 b/s
  602. Frame rate                               : 0.208 FPS
  603. Count of elements                        : 1493
  604. Stream size                              : 64.4 KiB (0%)
  605. Title                                    : Vietnamese
  606. Language                                 : Vietnamese
  607. Default                                  : No
  608. Forced                                   : No
复制代码











回复

使用道具 举报

蓝光币
79
发表于 2023-1-11 15:20:19 | 显示全部楼层

这东西我收了!谢谢楼主!蓝光电影网真好!
回复 支持 反对

使用道具 举报

懒得打字嘛,点击右侧快捷回复 【右侧内容,后台自定义】
您需要登录后才可以回帖 登录 | 立即加入

本版积分规则

Archiver|小黑屋| 蓝光电影网 |网站地图

Copyright © 2021 Comsenz Inc. Powered by 蓝光电影网

蓝光电影网

本站内容由用户自主分享和转载自互联网,转载目的在于传递更多信息,并不代表本网赞同其观点和对其真实性负责。

如有侵权、违反国家法律政策行为,请联系我们,我们会第一时间及时清除和处理!

举报反馈邮箱:[email protected]

快速回复 返回顶部 返回列表