找回密码

蓝光电影网

查看: 213|回复: 4

[2160p-WEB] 超能计划[中文字幕].Project.Power.2020.2160p.NF.WEB-DL.x265.10bit.HDR.DDP5.1.Atmos-CRFW 15.86GB

[复制链接]
蓝光币
1082
发表于 2023-1-10 16:18:21 | 显示全部楼层 |阅读模式


◎标  题 超能计划
◎译  名 超能计画(台) / Power
◎片  名 Project Power
◎年  代 2020
◎产  地 美国
◎类  别 行动 / 科幻 / 犯罪
◎语  言 英语
◎上映日期 2020-08-14(美国)
◎IMDb评分 6/10 (89980人评价)
◎IMDb链接 https://www.imdb.com/title/tt7550000/
◎豆瓣评分 5.7/10 (12163人评价)
◎豆瓣链接 https://movie.douban.com/subject/30330875/
◎片  长 111分钟
◎导  演 亨利·朱斯特 Henry Joost
       阿里尔·舒曼 Ariel Schulman
◎编  剧 马特森·汤姆林 Mattson Tomlin
◎演  员 杰米·福克斯 Jamie Foxx
       约瑟夫·高登-莱维特 Joseph Gordon-Levitt
       多米尼克·菲什巴克 Dominique Fishback
       罗德里戈·桑托罗 Rodrigo Santoro
       考特尼·万斯 Courtney B. Vance
       艾米·兰德克 Amy Landecker
       机关枪凯利 Machine Gun Kelly
       泰特·弗莱彻 Tait Fletcher
       阿伦·马尔多纳多 Allen Maldonado
       安德烈·沃德·哈蒙德 Andrene Ward-Hammond
       可亚娜·西蒙妮·辛普森 Kyanna Simone Simpson
       C.J.勒布朗 C.J. LeBlanc
       CG刘易斯 CG Lewis
       约瑟夫·波利昆 Joseph Poliquin
       雅茨·德·利瑟尔 Jazzy De Lisser
       凯西·奈斯泰德 Casey Neistat
       珍妮特·罗斯·阮 Janet Rose Nguyen
       吉姆·克洛克 Jim Klock
       乔恩·阿兹 Jon Eyez
       戴恩·罗兹 Dane Rhodes
       怀尔德·韦恩 Wild Wayne
       贾斯汀·贾木什 Justin Carmouche
       戈登·德克海默 Gordon Dexheimer
       卢克·霍克斯 Luke Hawx
       小彼得·詹梅斯 Peter Jaymes Jr.
       托尼·查普曼·斯蒂尔 Toney Chapman Steele
       约书亚·萨达索 Yoshua Sudarso
       萝丝·比安科 Rose Bianco
       莱斯利·霍夫 Leslie Hough
       埃里克·纽曼 Eric Newman
       约瑟夫·特雷帕尼斯 Joseph Trapanese
       迈克尔·西蒙兹 Michael Simmonds
       约翰·帕帕席德拉 John Papsidera
       纳奥米·索翰 Naomi Shohan
       Kelly Curley Kelly Curley
       雪伦·戴维斯 Sharen Davis
       费利克斯·贝当古 Felix Betancourt
       罗伯·西蒙森 Rob Simonsen
◎简  介
  在新奥尔良的街道上,关于奥秘新药丸的消息起头传布开来,这类药丸可以解锁每位利用者怪异的超才能。但题目是:在服用之前,没人晓得用药后会发生什么。一些人会进化出防弹皮肤、隐形才能和超强气力,也有很多人会表示出更致命的反应。可是,当药丸使城市内的犯罪升级到危险水平常,当地差人(约瑟夫·高登-莱维特饰)与一位少女小贩(多米尼克·菲什巴克饰)和誓报私仇的退伍兵士(杰米·福克斯饰)联手以硬碰硬,他们冒着服用药丸的风险,以追踪并制止制造出该药丸的团队。
  1. Video
  2. ID                                       : 1
  3. Format                                   : HEVC
  4. Format/Info                              : High Efficiency Video Coding
  5. Format profile                           : Main [email protected]@Main
  6. HDR format                               : Dolby Vision, Version 1.0, dvhe.08.06, BL+RPU, HDR10 compatible / SMPTE ST 2086, HDR10 compatible
  7. Codec ID                                 : V_MPEGH/ISO/HEVC
  8. Duration                                 : 1 h 51 min
  9. Bit rate                                 : 19.5 Mb/s
  10. Width                                    : 3 840 pixels
  11. Height                                   : 2 160 pixels
  12. Display aspect ratio                     : 16:9
  13. Frame rate mode                          : Constant
  14. Frame rate                               : 24.000 FPS
  15. Color space                              : YUV
  16. Chroma subsampling                       : 4:2:0 (Type 2)
  17. Bit depth                                : 10 bits
  18. Bits/(Pixel*Frame)                       : 0.098
  19. Stream size                              : 15.2 GiB (96%)
  20. Default                                  : Yes
  21. Forced                                   : No
  22. Color range                              : Limited
  23. Color primaries                          : BT.2020
  24. Transfer characteristics                 : PQ
  25. Matrix coefficients                      : BT.2020 non-constant
  26. Mastering display color primaries        : Display P3
  27. Mastering display luminance              : min: 0.0001 cd/m2, max: 1000 cd/m2
  28. Maximum Content Light Level              : 738 cd/m2
  29. Maximum Frame-Average Light Level        : 131 cd/m2
  30. Audio
  31. ID                                       : 2
  32. Format                                   : E-AC-3 JOC
  33. Format/Info                              : Enhanced AC-3 with Joint Object Coding
  34. Commercial name                          : Dolby Digital Plus with Dolby Atmos
  35. Codec ID                                 : A_EAC3
  36. Duration                                 : 1 h 53 min
  37. Bit rate mode                            : Constant
  38. Bit rate                                 : 768 kb/s
  39. Channel(s)                               : 6 channels
  40. Channel layout                           : L R C LFE Ls Rs
  41. Sampling rate                            : 48.0 kHz
  42. Frame rate                               : 31.250 FPS (1536 SPF)
  43. Compression mode                         : Lossy
  44. Stream size                              : 622 MiB (4%)
  45. Language                                 : English
  46. Service kind                             : Complete Main
  47. Default                                  : Yes
  48. Forced                                   : No
  49. Complexity index                         : 16
  50. Number of dynamic objects                : 15
  51. Bed channel count                        : 1 channel
  52. Bed channel configuration                : LFE
  53. Text #1
  54. ID                                       : 3
  55. Format                                   : UTF-8
  56. Codec ID                                 : S_TEXT/UTF8
  57. Codec ID/Info                            : UTF-8 Plain Text
  58. Duration                                 : 1 h 45 min
  59. Bit rate                                 : 66 b/s
  60. Frame rate                               : 0.244 FPS
  61. Count of elements                        : 1543
  62. Stream size                              : 51.6 KiB (0%)
  63. Language                                 : English
  64. Default                                  : No
  65. Forced                                   : No
  66. Text #2
  67. ID                                       : 4
  68. Format                                   : UTF-8
  69. Codec ID                                 : S_TEXT/UTF8
  70. Codec ID/Info                            : UTF-8 Plain Text
  71. Duration                                 : 1 h 45 min
  72. Bit rate                                 : 78 b/s
  73. Frame rate                               : 0.302 FPS
  74. Count of elements                        : 1910
  75. Stream size                              : 60.8 KiB (0%)
  76. Title                                    : SDH
  77. Language                                 : English
  78. Default                                  : No
  79. Forced                                   : No
  80. Text #3
  81. ID                                       : 5
  82. Format                                   : UTF-8
  83. Codec ID                                 : S_TEXT/UTF8
  84. Codec ID/Info                            : UTF-8 Plain Text
  85. Duration                                 : 1 h 51 min
  86. Bit rate                                 : 88 b/s
  87. Frame rate                               : 0.211 FPS
  88. Count of elements                        : 1411
  89. Stream size                              : 72.5 KiB (0%)
  90. Language                                 : Arabic
  91. Default                                  : No
  92. Forced                                   : No
  93. Text #4
  94. ID                                       : 6
  95. Format                                   : UTF-8
  96. Codec ID                                 : S_TEXT/UTF8
  97. Codec ID/Info                            : UTF-8 Plain Text
  98. Duration                                 : 1 h 51 min
  99. Bit rate                                 : 44 b/s
  100. Frame rate                               : 0.207 FPS
  101. Count of elements                        : 1383
  102. Stream size                              : 36.4 KiB (0%)
  103. Language                                 : Czech
  104. Default                                  : No
  105. Forced                                   : No
  106. Text #5
  107. ID                                       : 7
  108. Format                                   : UTF-8
  109. Codec ID                                 : S_TEXT/UTF8
  110. Codec ID/Info                            : UTF-8 Plain Text
  111. Duration                                 : 1 h 51 min
  112. Bit rate                                 : 46 b/s
  113. Frame rate                               : 0.182 FPS
  114. Count of elements                        : 1217
  115. Stream size                              : 37.9 KiB (0%)
  116. Language                                 : Danish
  117. Default                                  : No
  118. Forced                                   : No
  119. Text #6
  120. ID                                       : 8
  121. Format                                   : UTF-8
  122. Codec ID                                 : S_TEXT/UTF8
  123. Codec ID/Info                            : UTF-8 Plain Text
  124. Duration                                 : 1 h 51 min
  125. Bit rate                                 : 44 b/s
  126. Frame rate                               : 0.194 FPS
  127. Count of elements                        : 1298
  128. Stream size                              : 35.9 KiB (0%)
  129. Language                                 : German
  130. Default                                  : No
  131. Forced                                   : No
  132. Text #7
  133. ID                                       : 9
  134. Format                                   : UTF-8
  135. Codec ID                                 : S_TEXT/UTF8
  136. Codec ID/Info                            : UTF-8 Plain Text
  137. Duration                                 : 1 h 51 min
  138. Bit rate                                 : 77 b/s
  139. Frame rate                               : 0.198 FPS
  140. Count of elements                        : 1324
  141. Stream size                              : 63.6 KiB (0%)
  142. Language                                 : Greek
  143. Default                                  : No
  144. Forced                                   : No
  145. Text #8
  146. ID                                       : 10
  147. Format                                   : UTF-8
  148. Codec ID                                 : S_TEXT/UTF8
  149. Codec ID/Info                            : UTF-8 Plain Text
  150. Duration                                 : 1 h 51 min
  151. Bit rate                                 : 48 b/s
  152. Frame rate                               : 0.196 FPS
  153. Count of elements                        : 1310
  154. Stream size                              : 39.2 KiB (0%)
  155. Title                                    : Latin American
  156. Language                                 : Spanish (Latin America)
  157. Default                                  : No
  158. Forced                                   : No
  159. Text #9
  160. ID                                       : 11
  161. Format                                   : UTF-8
  162. Codec ID                                 : S_TEXT/UTF8
  163. Codec ID/Info                            : UTF-8 Plain Text
  164. Duration                                 : 1 h 51 min
  165. Bit rate                                 : 48 b/s
  166. Frame rate                               : 0.197 FPS
  167. Count of elements                        : 1318
  168. Stream size                              : 39.6 KiB (0%)
  169. Title                                    : European
  170. Language                                 : Spanish (ES)
  171. Default                                  : No
  172. Forced                                   : No
  173. Text #10
  174. ID                                       : 12
  175. Format                                   : UTF-8
  176. Codec ID                                 : S_TEXT/UTF8
  177. Codec ID/Info                            : UTF-8 Plain Text
  178. Duration                                 : 1 h 51 min
  179. Bit rate                                 : 44 b/s
  180. Frame rate                               : 0.170 FPS
  181. Count of elements                        : 1138
  182. Stream size                              : 36.2 KiB (0%)
  183. Language                                 : Finnish
  184. Default                                  : No
  185. Forced                                   : No
  186. Text #11
  187. ID                                       : 13
  188. Format                                   : UTF-8
  189. Codec ID                                 : S_TEXT/UTF8
  190. Codec ID/Info                            : UTF-8 Plain Text
  191. Duration                                 : 1 h 51 min
  192. Bit rate                                 : 46 b/s
  193. Frame rate                               : 0.209 FPS
  194. Count of elements                        : 1393
  195. Stream size                              : 38.0 KiB (0%)
  196. Language                                 : fil
  197. Default                                  : No
  198. Forced                                   : No
  199. Text #12
  200. ID                                       : 14
  201. Format                                   : UTF-8
  202. Codec ID                                 : S_TEXT/UTF8
  203. Codec ID/Info                            : UTF-8 Plain Text
  204. Duration                                 : 1 h 51 min
  205. Bit rate                                 : 46 b/s
  206. Frame rate                               : 0.206 FPS
  207. Count of elements                        : 1376
  208. Stream size                              : 38.2 KiB (0%)
  209. Language                                 : French
  210. Default                                  : No
  211. Forced                                   : No
  212. Text #13
  213. ID                                       : 15
  214. Format                                   : UTF-8
  215. Codec ID                                 : S_TEXT/UTF8
  216. Codec ID/Info                            : UTF-8 Plain Text
  217. Duration                                 : 1 h 51 min
  218. Bit rate                                 : 80 b/s
  219. Frame rate                               : 0.209 FPS
  220. Count of elements                        : 1397
  221. Stream size                              : 65.8 KiB (0%)
  222. Language                                 : Hebrew
  223. Default                                  : No
  224. Forced                                   : No
  225. Text #14
  226. ID                                       : 16
  227. Format                                   : UTF-8
  228. Codec ID                                 : S_TEXT/UTF8
  229. Codec ID/Info                            : UTF-8 Plain Text
  230. Duration                                 : 1 h 51 min
  231. Bit rate                                 : 45 b/s
  232. Frame rate                               : 0.196 FPS
  233. Count of elements                        : 1306
  234. Stream size                              : 37.3 KiB (0%)
  235. Language                                 : Hungarian
  236. Default                                  : No
  237. Forced                                   : No
  238. Text #15
  239. ID                                       : 17
  240. Format                                   : UTF-8
  241. Codec ID                                 : S_TEXT/UTF8
  242. Codec ID/Info                            : UTF-8 Plain Text
  243. Duration                                 : 1 h 51 min
  244. Bit rate                                 : 44 b/s
  245. Frame rate                               : 0.209 FPS
  246. Count of elements                        : 1396
  247. Stream size                              : 36.5 KiB (0%)
  248. Language                                 : Indonesian
  249. Default                                  : No
  250. Forced                                   : No
  251. Text #16
  252. ID                                       : 18
  253. Format                                   : UTF-8
  254. Codec ID                                 : S_TEXT/UTF8
  255. Codec ID/Info                            : UTF-8 Plain Text
  256. Duration                                 : 1 h 51 min
  257. Bit rate                                 : 45 b/s
  258. Frame rate                               : 0.198 FPS
  259. Count of elements                        : 1323
  260. Stream size                              : 37.3 KiB (0%)
  261. Language                                 : Italian
  262. Default                                  : No
  263. Forced                                   : No
  264. Text #17
  265. ID                                       : 19
  266. Format                                   : UTF-8
  267. Codec ID                                 : S_TEXT/UTF8
  268. Codec ID/Info                            : UTF-8 Plain Text
  269. Duration                                 : 1 h 51 min
  270. Bit rate                                 : 49 b/s
  271. Frame rate                               : 0.213 FPS
  272. Count of elements                        : 1424
  273. Stream size                              : 40.1 KiB (0%)
  274. Language                                 : Japanese
  275. Default                                  : No
  276. Forced                                   : No
  277. Text #18
  278. ID                                       : 20
  279. Format                                   : UTF-8
  280. Codec ID                                 : S_TEXT/UTF8
  281. Codec ID/Info                            : UTF-8 Plain Text
  282. Duration                                 : 1 h 51 min
  283. Bit rate                                 : 58 b/s
  284. Frame rate                               : 0.213 FPS
  285. Count of elements                        : 1420
  286. Stream size                              : 47.7 KiB (0%)
  287. Language                                 : Korean
  288. Default                                  : No
  289. Forced                                   : No
  290. Text #19
  291. ID                                       : 21
  292. Format                                   : UTF-8
  293. Codec ID                                 : S_TEXT/UTF8
  294. Codec ID/Info                            : UTF-8 Plain Text
  295. Duration                                 : 1 h 51 min
  296. Bit rate                                 : 46 b/s
  297. Frame rate                               : 0.197 FPS
  298. Count of elements                        : 1318
  299. Stream size                              : 37.8 KiB (0%)
  300. Language                                 : Malay
  301. Default                                  : No
  302. Forced                                   : No
  303. Text #20
  304. ID                                       : 22
  305. Format                                   : UTF-8
  306. Codec ID                                 : S_TEXT/UTF8
  307. Codec ID/Info                            : UTF-8 Plain Text
  308. Duration                                 : 1 h 51 min
  309. Bit rate                                 : 44 b/s
  310. Frame rate                               : 0.179 FPS
  311. Count of elements                        : 1199
  312. Stream size                              : 36.3 KiB (0%)
  313. Language                                 : Norwegian Bokmal
  314. Default                                  : No
  315. Forced                                   : No
  316. Text #21
  317. ID                                       : 23
  318. Format                                   : UTF-8
  319. Codec ID                                 : S_TEXT/UTF8
  320. Codec ID/Info                            : UTF-8 Plain Text
  321. Duration                                 : 1 h 43 min
  322. Bit rate                                 : 48 b/s
  323. Frame rate                               : 0.176 FPS
  324. Count of elements                        : 1089
  325. Stream size                              : 36.8 KiB (0%)
  326. Language                                 : Dutch
  327. Default                                  : No
  328. Forced                                   : No
  329. Text #22
  330. ID                                       : 24
  331. Format                                   : UTF-8
  332. Codec ID                                 : S_TEXT/UTF8
  333. Codec ID/Info                            : UTF-8 Plain Text
  334. Duration                                 : 1 h 51 min
  335. Bit rate                                 : 44 b/s
  336. Frame rate                               : 0.205 FPS
  337. Count of elements                        : 1369
  338. Stream size                              : 36.0 KiB (0%)
  339. Language                                 : Polish
  340. Default                                  : No
  341. Forced                                   : No
  342. Text #23
  343. ID                                       : 25
  344. Format                                   : UTF-8
  345. Codec ID                                 : S_TEXT/UTF8
  346. Codec ID/Info                            : UTF-8 Plain Text
  347. Duration                                 : 1 h 43 min
  348. Bit rate                                 : 51 b/s
  349. Frame rate                               : 0.211 FPS
  350. Count of elements                        : 1309
  351. Stream size                              : 38.9 KiB (0%)
  352. Title                                    : Brazilian
  353. Language                                 : Portuguese (BR)
  354. Default                                  : No
  355. Forced                                   : No
  356. Text #24
  357. ID                                       : 26
  358. Format                                   : UTF-8
  359. Codec ID                                 : S_TEXT/UTF8
  360. Codec ID/Info                            : UTF-8 Plain Text
  361. Duration                                 : 1 h 51 min
  362. Bit rate                                 : 48 b/s
  363. Frame rate                               : 0.196 FPS
  364. Count of elements                        : 1307
  365. Stream size                              : 39.9 KiB (0%)
  366. Title                                    : European
  367. Language                                 : Portuguese (PT)
  368. Default                                  : No
  369. Forced                                   : No
  370. Text #25
  371. ID                                       : 27
  372. Format                                   : UTF-8
  373. Codec ID                                 : S_TEXT/UTF8
  374. Codec ID/Info                            : UTF-8 Plain Text
  375. Duration                                 : 1 h 51 min
  376. Bit rate                                 : 53 b/s
  377. Frame rate                               : 0.204 FPS
  378. Count of elements                        : 1366
  379. Stream size                              : 43.9 KiB (0%)
  380. Language                                 : Romanian
  381. Default                                  : No
  382. Forced                                   : No
  383. Text #26
  384. ID                                       : 28
  385. Format                                   : UTF-8
  386. Codec ID                                 : S_TEXT/UTF8
  387. Codec ID/Info                            : UTF-8 Plain Text
  388. Duration                                 : 1 h 51 min
  389. Bit rate                                 : 71 b/s
  390. Frame rate                               : 0.211 FPS
  391. Count of elements                        : 1408
  392. Stream size                              : 58.4 KiB (0%)
  393. Language                                 : Russian
  394. Default                                  : No
  395. Forced                                   : No
  396. Text #27
  397. ID                                       : 29
  398. Format                                   : UTF-8
  399. Codec ID                                 : S_TEXT/UTF8
  400. Codec ID/Info                            : UTF-8 Plain Text
  401. Duration                                 : 1 h 51 min
  402. Bit rate                                 : 45 b/s
  403. Frame rate                               : 0.173 FPS
  404. Count of elements                        : 1153
  405. Stream size                              : 37.4 KiB (0%)
  406. Language                                 : Swedish
  407. Default                                  : No
  408. Forced                                   : No
  409. Text #28
  410. ID                                       : 30
  411. Format                                   : UTF-8
  412. Codec ID                                 : S_TEXT/UTF8
  413. Codec ID/Info                            : UTF-8 Plain Text
  414. Duration                                 : 1 h 51 min
  415. Bit rate                                 : 115 b/s
  416. Frame rate                               : 0.212 FPS
  417. Count of elements                        : 1413
  418. Stream size                              : 94.4 KiB (0%)
  419. Language                                 : Thai
  420. Default                                  : No
  421. Forced                                   : No
  422. Text #29
  423. ID                                       : 31
  424. Format                                   : UTF-8
  425. Codec ID                                 : S_TEXT/UTF8
  426. Codec ID/Info                            : UTF-8 Plain Text
  427. Duration                                 : 1 h 51 min
  428. Bit rate                                 : 46 b/s
  429. Frame rate                               : 0.207 FPS
  430. Count of elements                        : 1381
  431. Stream size                              : 38.2 KiB (0%)
  432. Language                                 : Turkish
  433. Default                                  : No
  434. Forced                                   : No
  435. Text #30
  436. ID                                       : 32
  437. Format                                   : UTF-8
  438. Codec ID                                 : S_TEXT/UTF8
  439. Codec ID/Info                            : UTF-8 Plain Text
  440. Duration                                 : 1 h 51 min
  441. Bit rate                                 : 63 b/s
  442. Frame rate                               : 0.205 FPS
  443. Count of elements                        : 1371
  444. Stream size                              : 51.7 KiB (0%)
  445. Language                                 : Vietnamese
  446. Default                                  : No
  447. Forced                                   : No
  448. Text #31
  449. ID                                       : 33
  450. Format                                   : UTF-8
  451. Codec ID                                 : S_TEXT/UTF8
  452. Codec ID/Info                            : UTF-8 Plain Text
  453. Duration                                 : 1 h 51 min
  454. Bit rate                                 : 53 b/s
  455. Frame rate                               : 0.212 FPS
  456. Count of elements                        : 1418
  457. Stream size                              : 43.9 KiB (0%)
  458. Title                                    : Simplified
  459. Language                                 : Chinese (Simplied)
  460. Default                                  : No
  461. Forced                                   : No
  462. Text #32
  463. ID                                       : 34
  464. Format                                   : UTF-8
  465. Codec ID                                 : S_TEXT/UTF8
  466. Codec ID/Info                            : UTF-8 Plain Text
  467. Duration                                 : 1 h 51 min
  468. Bit rate                                 : 50 b/s
  469. Frame rate                               : 0.212 FPS
  470. Count of elements                        : 1414
  471. Stream size                              : 41.0 KiB (0%)
  472. Title                                    : Traditional
  473. Language                                 : Chinese (Traditional)
  474. Default                                  : No
  475. Forced                                   : No
  476. Menu
  477. 00:00:00.000                             : en:Part 01
  478. 01:46:09.450                             : en:Credits
复制代码











回复

使用道具 举报

蓝光币
431
发表于 2023-1-10 18:56:28 | 显示全部楼层
楼主发贴辛苦了,谢谢楼主分享!我觉得蓝光电影网是注册对了!
回复 支持 反对

使用道具 举报

蓝光币
803
发表于 2023-1-10 20:20:48 | 显示全部楼层

这个帖子不回对不起自己!我想我是一天也不能离开蓝光电影网。
回复 支持 反对

使用道具 举报

蓝光币
25
发表于 2023-1-10 20:43:43 | 显示全部楼层
楼主发贴辛苦了,谢谢楼主分享!我觉得蓝光电影网是注册对了!
回复 支持 反对

使用道具 举报

蓝光币
4
发表于 2023-1-11 01:01:01 | 显示全部楼层

楼主太厉害了!楼主,电影应该很好看我觉得蓝光电影网真是个好地方!
回复 支持 反对

使用道具 举报

懒得打字嘛,点击右侧快捷回复 【右侧内容,后台自定义】
您需要登录后才可以回帖 登录 | 立即加入

本版积分规则

Archiver|小黑屋| 蓝光电影网 |网站地图

Copyright © 2021 Comsenz Inc. Powered by 蓝光电影网

蓝光电影网

本站内容由用户自主分享和转载自互联网,转载目的在于传递更多信息,并不代表本网赞同其观点和对其真实性负责。

如有侵权、违反国家法律政策行为,请联系我们,我们会第一时间及时清除和处理!

举报反馈邮箱:[email protected]

快速回复 返回顶部 返回列表