找回密码

蓝光电影网

查看: 309|回复: 0

[2160p-WEB] 白虎[中文字幕].The.White.Tiger.2021.2160p.NF.WEB-DL.x265.10bit.SDR.DDP5.1.Atmos-HONE 11.19GB

[复制链接]
蓝光币
1084
发表于 2023-1-10 16:18:29 | 显示全部楼层 |阅读模式


◎标  题 白虎
◎译  名 白山君
◎片  名 The White Tiger
◎年  代 2021
◎产  地 印度 / 美国
◎类  别 剧情 / 犯罪
◎语  言 英语
◎上映日期 2021-01-22(美国收集)
◎IMDb评分 7.1/10 (61082人评价)
◎IMDb链接 https://www.imdb.com/title/tt6571548/
◎豆瓣评分 7.6/10 (24264人评价)
◎豆瓣链接 https://movie.douban.com/subject/34983332/
◎片  长 125分钟
◎导  演 拉敏·巴哈尼 Ramin Bahrani
◎编  剧 亚拉文·雅迪嘉 Aravind Adiga
       拉敏·巴哈尼 Ramin Bahrani
◎演  员 阿达什·古拉夫 Adarsh Gourav
       佩丽冉卡·曹帕拉 Priyanka Chopra
       拉吉·库玛 Rajkummar Rao
       马赫什·曼杰瑞卡 Mahesh Manjrekar
       维杰·莫里亚 Vijay Maurya
       斯瓦普·桑帕特 Swaroop Sampat
       纳尼什·尼尔 Nalneesh Neel
       凯姆利什·吉尔 Kamlesh Gill
       保罗·卡尼拉 Paolo Carnera
◎简  介
  巴尔朗·哈勒维(阿达什·古拉夫饰)报告了他从贫困村民长大为今世印度成功企业家的史诗般、布满黑色诙谐的人生过程。我们年轻的仆人公神机妙算而又大志勃勃,想法成为了刚从美国返来的阿肖克(拉吉·库玛饰)和粉红夫人(朴雅卡·乔普拉饰)的司机。社会将巴尔朗练习成一位家丁,他便尽力将自己打形成富有仆人的得力帮手。但经过一夜之间的变节,他意想到仆人们会不择手段地谗谄他以停止自救。在落空一切的边沿,巴尔朗决心抵挡被操纵的人生和分歧等的制度,奋起成为新型的仆人。该影片改编自《纽约时报》畅销书和 2008 年曼布克奖获奖小说。
  1. Video
  2. ID                                       : 1
  3. Format                                   : HEVC
  4. Format/Info                              : High Efficiency Video Coding
  5. Format profile                           : Main [email protected]@Main
  6. Codec ID                                 : V_MPEGH/ISO/HEVC
  7. Duration                                 : 2 h 7 min
  8. Bit rate                                 : 11.8 Mb/s
  9. Width                                    : 3 840 pixels
  10. Height                                   : 2 160 pixels
  11. Display aspect ratio                     : 16:9
  12. Frame rate mode                          : Constant
  13. Frame rate                               : 24.000 FPS
  14. Color space                              : YUV
  15. Chroma subsampling                       : 4:2:0
  16. Bit depth                                : 10 bits
  17. Bits/(Pixel*Frame)                       : 0.059
  18. Stream size                              : 10.5 GiB (94%)
  19. Language                                 : English
  20. Default                                  : Yes
  21. Forced                                   : No
  22. Color range                              : Limited
  23. Color primaries                          : BT.709
  24. Transfer characteristics                 : BT.709
  25. Matrix coefficients                      : BT.709
  26. Audio
  27. ID                                       : 2
  28. Format                                   : E-AC-3 JOC
  29. Format/Info                              : Enhanced AC-3 with Joint Object Coding
  30. Commercial name                          : Dolby Digital Plus with Dolby Atmos
  31. Codec ID                                 : A_EAC3
  32. Duration                                 : 2 h 7 min
  33. Bit rate mode                            : Constant
  34. Bit rate                                 : 768 kb/s
  35. Channel(s)                               : 6 channels
  36. Channel layout                           : L R C LFE Ls Rs
  37. Sampling rate                            : 48.0 kHz
  38. Frame rate                               : 31.250 FPS (1536 SPF)
  39. Compression mode                         : Lossy
  40. Stream size                              : 698 MiB (6%)
  41. Language                                 : English
  42. Service kind                             : Complete Main
  43. Default                                  : Yes
  44. Forced                                   : No
  45. Complexity index                         : 16
  46. Number of dynamic objects                : 15
  47. Bed channel count                        : 1 channel
  48. Bed channel configuration                : LFE
  49. Text #1
  50. ID                                       : 3
  51. Format                                   : UTF-8
  52. Codec ID                                 : S_TEXT/UTF8
  53. Codec ID/Info                            : UTF-8 Plain Text
  54. Duration                                 : 1 h 52 min
  55. Bit rate                                 : 18 b/s
  56. Frame rate                               : 0.068 FPS
  57. Count of elements                        : 458
  58. Stream size                              : 14.9 KiB (0%)
  59. Title                                    : Forced
  60. Language                                 : English
  61. Default                                  : Yes
  62. Forced                                   : Yes
  63. Text #2
  64. ID                                       : 4
  65. Format                                   : UTF-8
  66. Codec ID                                 : S_TEXT/UTF8
  67. Codec ID/Info                            : UTF-8 Plain Text
  68. Duration                                 : 2 h 0 min
  69. Bit rate                                 : 67 b/s
  70. Frame rate                               : 0.211 FPS
  71. Count of elements                        : 1524
  72. Stream size                              : 59.3 KiB (0%)
  73. Language                                 : English
  74. Default                                  : No
  75. Forced                                   : No
  76. Text #3
  77. ID                                       : 5
  78. Format                                   : UTF-8
  79. Codec ID                                 : S_TEXT/UTF8
  80. Codec ID/Info                            : UTF-8 Plain Text
  81. Duration                                 : 2 h 4 min
  82. Bit rate                                 : 80 b/s
  83. Frame rate                               : 0.246 FPS
  84. Count of elements                        : 1832
  85. Stream size                              : 73.4 KiB (0%)
  86. Title                                    : SDH
  87. Language                                 : English
  88. Default                                  : No
  89. Forced                                   : No
  90. Text #4
  91. ID                                       : 6
  92. Format                                   : UTF-8
  93. Codec ID                                 : S_TEXT/UTF8
  94. Codec ID/Info                            : UTF-8 Plain Text
  95. Duration                                 : 2 h 5 min
  96. Bit rate                                 : 101 b/s
  97. Frame rate                               : 0.199 FPS
  98. Count of elements                        : 1501
  99. Stream size                              : 93.6 KiB (0%)
  100. Language                                 : Arabic
  101. Default                                  : No
  102. Forced                                   : No
  103. Text #5
  104. ID                                       : 7
  105. Format                                   : UTF-8
  106. Codec ID                                 : S_TEXT/UTF8
  107. Codec ID/Info                            : UTF-8 Plain Text
  108. Duration                                 : 2 h 5 min
  109. Bit rate                                 : 60 b/s
  110. Frame rate                               : 0.194 FPS
  111. Count of elements                        : 1461
  112. Stream size                              : 56.0 KiB (0%)
  113. Language                                 : Czech
  114. Default                                  : No
  115. Forced                                   : No
  116. Text #6
  117. ID                                       : 8
  118. Format                                   : UTF-8
  119. Codec ID                                 : S_TEXT/UTF8
  120. Codec ID/Info                            : UTF-8 Plain Text
  121. Duration                                 : 2 h 5 min
  122. Bit rate                                 : 57 b/s
  123. Frame rate                               : 0.190 FPS
  124. Count of elements                        : 1435
  125. Stream size                              : 53.2 KiB (0%)
  126. Language                                 : Danish
  127. Default                                  : No
  128. Forced                                   : No
  129. Text #7
  130. ID                                       : 9
  131. Format                                   : UTF-8
  132. Codec ID                                 : S_TEXT/UTF8
  133. Codec ID/Info                            : UTF-8 Plain Text
  134. Duration                                 : 2 h 5 min
  135. Bit rate                                 : 59 b/s
  136. Frame rate                               : 0.196 FPS
  137. Count of elements                        : 1480
  138. Stream size                              : 54.4 KiB (0%)
  139. Language                                 : German
  140. Default                                  : No
  141. Forced                                   : No
  142. Text #8
  143. ID                                       : 10
  144. Format                                   : UTF-8
  145. Codec ID                                 : S_TEXT/UTF8
  146. Codec ID/Info                            : UTF-8 Plain Text
  147. Duration                                 : 2 h 5 min
  148. Bit rate                                 : 104 b/s
  149. Frame rate                               : 0.197 FPS
  150. Count of elements                        : 1486
  151. Stream size                              : 96.0 KiB (0%)
  152. Language                                 : Greek
  153. Default                                  : No
  154. Forced                                   : No
  155. Text #9
  156. ID                                       : 11
  157. Format                                   : UTF-8
  158. Codec ID                                 : S_TEXT/UTF8
  159. Codec ID/Info                            : UTF-8 Plain Text
  160. Duration                                 : 2 h 1 min
  161. Bit rate                                 : 64 b/s
  162. Frame rate                               : 0.206 FPS
  163. Count of elements                        : 1501
  164. Stream size                              : 57.7 KiB (0%)
  165. Title                                    : Latin American
  166. Language                                 : Spanish (Latin America)
  167. Default                                  : No
  168. Forced                                   : No
  169. Text #10
  170. ID                                       : 12
  171. Format                                   : UTF-8
  172. Codec ID                                 : S_TEXT/UTF8
  173. Codec ID/Info                            : UTF-8 Plain Text
  174. Duration                                 : 2 h 5 min
  175. Bit rate                                 : 60 b/s
  176. Frame rate                               : 0.198 FPS
  177. Count of elements                        : 1497
  178. Stream size                              : 56.0 KiB (0%)
  179. Language                                 : Spanish (ES)
  180. Default                                  : No
  181. Forced                                   : No
  182. Text #11
  183. ID                                       : 13
  184. Format                                   : UTF-8
  185. Codec ID                                 : S_TEXT/UTF8
  186. Codec ID/Info                            : UTF-8 Plain Text
  187. Duration                                 : 2 h 5 min
  188. Bit rate                                 : 57 b/s
  189. Frame rate                               : 0.188 FPS
  190. Count of elements                        : 1417
  191. Stream size                              : 53.2 KiB (0%)
  192. Language                                 : Finnish
  193. Default                                  : No
  194. Forced                                   : No
  195. Text #12
  196. ID                                       : 14
  197. Format                                   : UTF-8
  198. Codec ID                                 : S_TEXT/UTF8
  199. Codec ID/Info                            : UTF-8 Plain Text
  200. Duration                                 : 2 h 5 min
  201. Bit rate                                 : 60 b/s
  202. Frame rate                               : 0.193 FPS
  203. Count of elements                        : 1454
  204. Stream size                              : 55.4 KiB (0%)
  205. Language                                 : fil
  206. Default                                  : No
  207. Forced                                   : No
  208. Text #13
  209. ID                                       : 15
  210. Format                                   : UTF-8
  211. Codec ID                                 : S_TEXT/UTF8
  212. Codec ID/Info                            : UTF-8 Plain Text
  213. Duration                                 : 2 h 5 min
  214. Bit rate                                 : 60 b/s
  215. Frame rate                               : 0.197 FPS
  216. Count of elements                        : 1482
  217. Stream size                              : 55.9 KiB (0%)
  218. Language                                 : French
  219. Default                                  : No
  220. Forced                                   : No
  221. Text #14
  222. ID                                       : 16
  223. Format                                   : UTF-8
  224. Codec ID                                 : S_TEXT/UTF8
  225. Codec ID/Info                            : UTF-8 Plain Text
  226. Duration                                 : 2 h 5 min
  227. Bit rate                                 : 85 b/s
  228. Frame rate                               : 0.200 FPS
  229. Count of elements                        : 1505
  230. Stream size                              : 78.3 KiB (0%)
  231. Language                                 : Hebrew
  232. Default                                  : No
  233. Forced                                   : No
  234. Text #15
  235. ID                                       : 17
  236. Format                                   : UTF-8
  237. Codec ID                                 : S_TEXT/UTF8
  238. Codec ID/Info                            : UTF-8 Plain Text
  239. Duration                                 : 2 h 1 min
  240. Bit rate                                 : 114 b/s
  241. Frame rate                               : 0.146 FPS
  242. Count of elements                        : 1060
  243. Stream size                              : 102 KiB (0%)
  244. Language                                 : Hindi
  245. Default                                  : No
  246. Forced                                   : No
  247. Text #16
  248. ID                                       : 18
  249. Format                                   : UTF-8
  250. Codec ID                                 : S_TEXT/UTF8
  251. Codec ID/Info                            : UTF-8 Plain Text
  252. Duration                                 : 2 h 5 min
  253. Bit rate                                 : 53 b/s
  254. Frame rate                               : 0.196 FPS
  255. Count of elements                        : 1478
  256. Stream size                              : 49.1 KiB (0%)
  257. Language                                 : Croatian
  258. Default                                  : No
  259. Forced                                   : No
  260. Text #17
  261. ID                                       : 19
  262. Format                                   : UTF-8
  263. Codec ID                                 : S_TEXT/UTF8
  264. Codec ID/Info                            : UTF-8 Plain Text
  265. Duration                                 : 2 h 5 min
  266. Bit rate                                 : 59 b/s
  267. Frame rate                               : 0.198 FPS
  268. Count of elements                        : 1493
  269. Stream size                              : 54.7 KiB (0%)
  270. Language                                 : Hungarian
  271. Default                                  : No
  272. Forced                                   : No
  273. Text #18
  274. ID                                       : 20
  275. Format                                   : UTF-8
  276. Codec ID                                 : S_TEXT/UTF8
  277. Codec ID/Info                            : UTF-8 Plain Text
  278. Duration                                 : 2 h 5 min
  279. Bit rate                                 : 60 b/s
  280. Frame rate                               : 0.198 FPS
  281. Count of elements                        : 1495
  282. Stream size                              : 55.4 KiB (0%)
  283. Language                                 : Indonesian
  284. Default                                  : No
  285. Forced                                   : No
  286. Text #19
  287. ID                                       : 21
  288. Format                                   : UTF-8
  289. Codec ID                                 : S_TEXT/UTF8
  290. Codec ID/Info                            : UTF-8 Plain Text
  291. Duration                                 : 2 h 5 min
  292. Bit rate                                 : 61 b/s
  293. Frame rate                               : 0.198 FPS
  294. Count of elements                        : 1491
  295. Stream size                              : 56.8 KiB (0%)
  296. Language                                 : Italian
  297. Default                                  : No
  298. Forced                                   : No
  299. Text #20
  300. ID                                       : 22
  301. Format                                   : UTF-8
  302. Codec ID                                 : S_TEXT/UTF8
  303. Codec ID/Info                            : UTF-8 Plain Text
  304. Duration                                 : 2 h 5 min
  305. Bit rate                                 : 60 b/s
  306. Frame rate                               : 0.208 FPS
  307. Count of elements                        : 1570
  308. Stream size                              : 55.3 KiB (0%)
  309. Language                                 : Japanese
  310. Default                                  : No
  311. Forced                                   : No
  312. Text #21
  313. ID                                       : 23
  314. Format                                   : UTF-8
  315. Codec ID                                 : S_TEXT/UTF8
  316. Codec ID/Info                            : UTF-8 Plain Text
  317. Duration                                 : 2 h 5 min
  318. Bit rate                                 : 78 b/s
  319. Frame rate                               : 0.200 FPS
  320. Count of elements                        : 1507
  321. Stream size                              : 72.0 KiB (0%)
  322. Language                                 : Korean
  323. Default                                  : No
  324. Forced                                   : No
  325. Text #22
  326. ID                                       : 24
  327. Format                                   : UTF-8
  328. Codec ID                                 : S_TEXT/UTF8
  329. Codec ID/Info                            : UTF-8 Plain Text
  330. Duration                                 : 2 h 5 min
  331. Bit rate                                 : 57 b/s
  332. Frame rate                               : 0.196 FPS
  333. Count of elements                        : 1475
  334. Stream size                              : 53.3 KiB (0%)
  335. Language                                 : Malay
  336. Default                                  : No
  337. Forced                                   : No
  338. Text #23
  339. ID                                       : 25
  340. Format                                   : UTF-8
  341. Codec ID                                 : S_TEXT/UTF8
  342. Codec ID/Info                            : UTF-8 Plain Text
  343. Duration                                 : 2 h 5 min
  344. Bit rate                                 : 60 b/s
  345. Frame rate                               : 0.188 FPS
  346. Count of elements                        : 1418
  347. Stream size                              : 55.5 KiB (0%)
  348. Language                                 : Norwegian Bokmal
  349. Default                                  : No
  350. Forced                                   : No
  351. Text #24
  352. ID                                       : 26
  353. Format                                   : UTF-8
  354. Codec ID                                 : S_TEXT/UTF8
  355. Codec ID/Info                            : UTF-8 Plain Text
  356. Duration                                 : 2 h 5 min
  357. Bit rate                                 : 54 b/s
  358. Frame rate                               : 0.173 FPS
  359. Count of elements                        : 1301
  360. Stream size                              : 50.6 KiB (0%)
  361. Language                                 : Dutch
  362. Default                                  : No
  363. Forced                                   : No
  364. Text #25
  365. ID                                       : 27
  366. Format                                   : UTF-8
  367. Codec ID                                 : S_TEXT/UTF8
  368. Codec ID/Info                            : UTF-8 Plain Text
  369. Duration                                 : 2 h 5 min
  370. Bit rate                                 : 54 b/s
  371. Frame rate                               : 0.195 FPS
  372. Count of elements                        : 1474
  373. Stream size                              : 50.1 KiB (0%)
  374. Language                                 : Polish
  375. Default                                  : No
  376. Forced                                   : No
  377. Text #26
  378. ID                                       : 28
  379. Format                                   : UTF-8
  380. Codec ID                                 : S_TEXT/UTF8
  381. Codec ID/Info                            : UTF-8 Plain Text
  382. Duration                                 : 2 h 5 min
  383. Bit rate                                 : 58 b/s
  384. Frame rate                               : 0.200 FPS
  385. Count of elements                        : 1511
  386. Stream size                              : 53.8 KiB (0%)
  387. Title                                    : Brazilian
  388. Language                                 : Portuguese (BR)
  389. Default                                  : No
  390. Forced                                   : No
  391. Text #27
  392. ID                                       : 29
  393. Format                                   : UTF-8
  394. Codec ID                                 : S_TEXT/UTF8
  395. Codec ID/Info                            : UTF-8 Plain Text
  396. Duration                                 : 2 h 5 min
  397. Bit rate                                 : 59 b/s
  398. Frame rate                               : 0.198 FPS
  399. Count of elements                        : 1497
  400. Stream size                              : 55.2 KiB (0%)
  401. Language                                 : Portuguese (PT)
  402. Default                                  : No
  403. Forced                                   : No
  404. Text #28
  405. ID                                       : 30
  406. Format                                   : UTF-8
  407. Codec ID                                 : S_TEXT/UTF8
  408. Codec ID/Info                            : UTF-8 Plain Text
  409. Duration                                 : 2 h 5 min
  410. Bit rate                                 : 68 b/s
  411. Frame rate                               : 0.198 FPS
  412. Count of elements                        : 1491
  413. Stream size                              : 63.2 KiB (0%)
  414. Language                                 : Romanian
  415. Default                                  : No
  416. Forced                                   : No
  417. Text #29
  418. ID                                       : 31
  419. Format                                   : UTF-8
  420. Codec ID                                 : S_TEXT/UTF8
  421. Codec ID/Info                            : UTF-8 Plain Text
  422. Duration                                 : 2 h 5 min
  423. Bit rate                                 : 94 b/s
  424. Frame rate                               : 0.194 FPS
  425. Count of elements                        : 1466
  426. Stream size                              : 86.9 KiB (0%)
  427. Language                                 : Russian
  428. Default                                  : No
  429. Forced                                   : No
  430. Text #30
  431. ID                                       : 32
  432. Format                                   : UTF-8
  433. Codec ID                                 : S_TEXT/UTF8
  434. Codec ID/Info                            : UTF-8 Plain Text
  435. Duration                                 : 2 h 5 min
  436. Bit rate                                 : 60 b/s
  437. Frame rate                               : 0.198 FPS
  438. Count of elements                        : 1492
  439. Stream size                              : 55.6 KiB (0%)
  440. Language                                 : Swedish
  441. Default                                  : No
  442. Forced                                   : No
  443. Text #31
  444. ID                                       : 33
  445. Format                                   : UTF-8
  446. Codec ID                                 : S_TEXT/UTF8
  447. Codec ID/Info                            : UTF-8 Plain Text
  448. Duration                                 : 2 h 5 min
  449. Bit rate                                 : 141 b/s
  450. Frame rate                               : 0.199 FPS
  451. Count of elements                        : 1503
  452. Stream size                              : 131 KiB (0%)
  453. Language                                 : Thai
  454. Default                                  : No
  455. Forced                                   : No
  456. Text #32
  457. ID                                       : 34
  458. Format                                   : UTF-8
  459. Codec ID                                 : S_TEXT/UTF8
  460. Codec ID/Info                            : UTF-8 Plain Text
  461. Duration                                 : 2 h 5 min
  462. Bit rate                                 : 59 b/s
  463. Frame rate                               : 0.198 FPS
  464. Count of elements                        : 1491
  465. Stream size                              : 55.1 KiB (0%)
  466. Language                                 : Turkish
  467. Default                                  : No
  468. Forced                                   : No
  469. Text #33
  470. ID                                       : 35
  471. Format                                   : UTF-8
  472. Codec ID                                 : S_TEXT/UTF8
  473. Codec ID/Info                            : UTF-8 Plain Text
  474. Duration                                 : 2 h 5 min
  475. Bit rate                                 : 100 b/s
  476. Frame rate                               : 0.199 FPS
  477. Count of elements                        : 1503
  478. Stream size                              : 92.2 KiB (0%)
  479. Language                                 : Ukrainian
  480. Default                                  : No
  481. Forced                                   : No
  482. Text #34
  483. ID                                       : 36
  484. Format                                   : UTF-8
  485. Codec ID                                 : S_TEXT/UTF8
  486. Codec ID/Info                            : UTF-8 Plain Text
  487. Duration                                 : 2 h 5 min
  488. Bit rate                                 : 79 b/s
  489. Frame rate                               : 0.195 FPS
  490. Count of elements                        : 1472
  491. Stream size                              : 72.9 KiB (0%)
  492. Language                                 : Vietnamese
  493. Default                                  : No
  494. Forced                                   : No
  495. Text #35
  496. ID                                       : 37
  497. Format                                   : UTF-8
  498. Codec ID                                 : S_TEXT/UTF8
  499. Codec ID/Info                            : UTF-8 Plain Text
  500. Duration                                 : 2 h 5 min
  501. Bit rate                                 : 64 b/s
  502. Frame rate                               : 0.199 FPS
  503. Count of elements                        : 1503
  504. Stream size                              : 59.3 KiB (0%)
  505. Title                                    : Simplified
  506. Language                                 : Chinese (Simplied)
  507. Default                                  : No
  508. Forced                                   : No
  509. Text #36
  510. ID                                       : 38
  511. Format                                   : UTF-8
  512. Codec ID                                 : S_TEXT/UTF8
  513. Codec ID/Info                            : UTF-8 Plain Text
  514. Duration                                 : 2 h 5 min
  515. Bit rate                                 : 58 b/s
  516. Frame rate                               : 0.199 FPS
  517. Count of elements                        : 1498
  518. Stream size                              : 54.2 KiB (0%)
  519. Title                                    : Traditional
  520. Language                                 : Chinese (Traditional)
  521. Default                                  : No
  522. Forced                                   : No
  523. Menu
  524. 02:05:46.000                             : en:End Credits
复制代码











回复

使用道具 举报

懒得打字嘛,点击右侧快捷回复 【右侧内容,后台自定义】
您需要登录后才可以回帖 登录 | 立即加入

本版积分规则

Archiver|小黑屋| 蓝光电影网 |网站地图

Copyright © 2021 Comsenz Inc. Powered by 蓝光电影网

蓝光电影网

本站内容由用户自主分享和转载自互联网,转载目的在于传递更多信息,并不代表本网赞同其观点和对其真实性负责。

如有侵权、违反国家法律政策行为,请联系我们,我们会第一时间及时清除和处理!

举报反馈邮箱:[email protected]

快速回复 返回顶部 返回列表