找回密码

蓝光电影网

查看: 109|回复: 0

[喜剧] 重友轻色.Bros.Before.Hos.2013.DUTCH.1080p.BluRay.x264.DDP5.1-SbR 10.17GB

[复制链接]
蓝光币
1082
发表于 2023-1-10 18:05:46 | 显示全部楼层 |阅读模式


◎标  题 重友轻色
◎片  名 Bro's Before Ho's
◎年  代 2013
◎产  地 荷兰
◎类  别 笑剧
◎语  言 荷兰语
◎上映日期 2013-12-12(荷兰)
◎IMDb评分 6.4/10 (6280人评价)
◎IMDb链接 https://www.imdb.com/title/tt2947832/
◎豆瓣评分 5.6/10 (803人评价)
◎豆瓣链接 https://movie.douban.com/subject/24876063/
◎片  长 87分钟
◎导  演 Steffen Haars Steffen Haars
       Flip Van der Kuil Flip Van der Kuil
◎编  剧 Steffen Haars Steffen Haars
       Flip Van der Kuil Flip Van der Kuil
◎演  员 西尔维娅·侯克斯 Sylvia Hoeks
       雷蒙德·提哈瑞 Raymond Thiry
       Birgit Schuurman Birgit Schuurman
       珍妮弗·霍夫曼 Jennifer Hoffman
       Juliette van Ardenne Juliette van Ardenne
       提奥·马森 Theo Maassen
       东尼·卡斯 Ton Kas
       Eva Duijvestein Eva Duijvestein
       Henry Van Loon Henry Van Loon
       尼尔斯·韦尔科金 Nils Verkooijen
       蒂姆 ·哈斯 Tim Haars
◎标  签 笑剧 / 荷兰 / 恋爱 / 荷兰电影 / 搞笑 / 2013 / 长大 / 人生
◎简  介
  马克思(Tim Haars 饰)和朱尔斯(Daniël Arends 饰)虽然没有血缘关系,但从小在同一屋檐下长大,相互之间情同骨肉豪情非常要好。饱受豪情熬煎的父亲从小就教育他们,女人不成信,永久不要堕入恋爱当中,这样的动机在兄弟两人脑中根深蒂固,长大以后,他们都成为了没有定数,放荡不羁的花花令郎。                                    
                                但是,某日,一位名叫安娜(西尔维娅·侯克斯 Sylvia Hoeks 饰)的美丽女子出现在了马克思和朱尔斯的身旁,这位特此外女子让立誓一辈子都不正式恋爱的兄弟两人坠入了情网,朱尔斯甚至想和安娜住到一路去,这让马克思的心里很不是滋味,兄弟两人之间的友谊发生了裂缝。
  1. Video
  2. ID                                       : 1
  3. Format                                   : AVC
  4. Format/Info                              : Advanced Video Codec
  5. Format profile                           : [email protected]
  6. Format settings                          : CABAC / 4 Ref Frames
  7. Format settings, CABAC                   : Yes
  8. Format settings, Reference frames        : 4 frames
  9. Codec ID                                 : V_MPEG4/ISO/AVC
  10. Duration                                 : 1 h 27 min
  11. Bit rate                                 : 15.5 Mb/s
  12. Width                                    : 1 920 pixels
  13. Height                                   : 808 pixels
  14. Display aspect ratio                     : 2.40:1
  15. Frame rate mode                          : Constant
  16. Frame rate                               : 24.000 FPS
  17. Color space                              : YUV
  18. Chroma subsampling                       : 4:2:0
  19. Bit depth                                : 8 bits
  20. Scan type                                : Progressive
  21. Bits/(Pixel*Frame)                       : 0.417
  22. Stream size                              : 9.54 GiB (94%)
  23. Writing library                          : x264 core 164 r3100+49 ee821bd devel [(8 & 10)[email protected] X86_64]
  24. Encoding settings                        : cabac=1 / ref=4 / deblock=1:-3:-3 / analyse=0x3:0x133 / me=umh / subme=11 / psy=1 / fade_compensate=0.00 / psy_rd=1.00:0.00 / mixed_ref=1 / me_range=32 / chroma_me=1 / trellis=2 / 8x8dct=1 / cqm=0 / deadzone=21,11 / fast_pskip=1 / chroma_qp_offset=-2 / threads=32 / lookahead_threads=6 / sliced_threads=0 / nr=0 / decimate=1 / interlaced=0 / bluray_compat=0 / constrained_intra=0 / fgo=0 / bframes=10 / b_pyramid=2 / b_adapt=2 / b_bias=0 / direct=3 / weightb=1 / open_gop=0 / weightp=2 / keyint=250 / keyint_min=24 / scenecut=40 / intra_refresh=0 / rc=crf / mbtree=0 / crf=18.5000 / qcomp=0.60 / qpmin=0:0:0 / qpmax=69:69:69 / qpstep=4 / ip_ratio=1.25 / pb_ratio=1.20 / aq=3:0.80 / aq-sensitivity=10.00 / aq-factor=1.00:1.00:1.00 / aq2=0 / aq3=0
  25. Language                                 : Dutch
  26. Default                                  : Yes
  27. Forced                                   : No
  28. Audio
  29. ID                                       : 2
  30. Format                                   : E-AC-3
  31. Format/Info                              : Enhanced AC-3
  32. Commercial name                          : Dolby Digital Plus
  33. Codec ID                                 : A_EAC3
  34. Duration                                 : 1 h 27 min
  35. Bit rate mode                            : Constant
  36. Bit rate                                 : 1 024 kb/s
  37. Channel(s)                               : 6 channels
  38. Channel layout                           : L R C LFE Ls Rs
  39. Sampling rate                            : 48.0 kHz
  40. Frame rate                               : 31.250 FPS (1536 SPF)
  41. Compression mode                         : Lossy
  42. Stream size                              : 644 MiB (6%)
  43. Language                                 : Dutch
  44. Service kind                             : Complete Main
  45. Default                                  : Yes
  46. Forced                                   : No
  47. Text #1
  48. ID                                       : 3
  49. Format                                   : ASS
  50. Codec ID                                 : S_TEXT/ASS
  51. Codec ID/Info                            : Advanced Sub Station Alpha
  52. Duration                                 : 1 h 26 min
  53. Bit rate                                 : 82 b/s
  54. Frame rate                               : 0.188 FPS
  55. Count of elements                        : 977
  56. Compression mode                         : Lossless
  57. Stream size                              : 52.5 KiB (0%)
  58. Language                                 : English
  59. Default                                  : No
  60. Forced                                   : No
  61. Text #2
  62. ID                                       : 4
  63. Format                                   : UTF-8
  64. Codec ID                                 : S_TEXT/UTF8
  65. Codec ID/Info                            : UTF-8 Plain Text
  66. Duration                                 : 1 h 26 min
  67. Bit rate                                 : 49 b/s
  68. Frame rate                               : 0.188 FPS
  69. Count of elements                        : 977
  70. Stream size                              : 31.5 KiB (0%)
  71. Language                                 : English
  72. Default                                  : No
  73. Forced                                   : No
  74. Text #3
  75. ID                                       : 5
  76. Format                                   : UTF-8
  77. Codec ID                                 : S_TEXT/UTF8
  78. Codec ID/Info                            : UTF-8 Plain Text
  79. Duration                                 : 1 h 26 min
  80. Bit rate                                 : 57 b/s
  81. Frame rate                               : 0.201 FPS
  82. Count of elements                        : 1043
  83. Stream size                              : 36.6 KiB (0%)
  84. Language                                 : Dutch
  85. Default                                  : No
  86. Forced                                   : No
  87. Menu
  88. 00:00:00.000                             : en:Chapter 01
  89. 00:10:39.167                             : en:Chapter 02
  90. 00:20:28.083                             : en:Chapter 03
  91. 00:29:48.083                             : en:Chapter 04
  92. 00:38:53.375                             : en:Chapter 05
  93. 00:50:59.542                             : en:Chapter 06
  94. 00:59:37.875                             : en:Chapter 07
  95. 01:10:15.625                             : en:Chapter 08
  96. 01:19:39.333                             : en:Chapter 09
复制代码











回复

使用道具 举报

懒得打字嘛,点击右侧快捷回复 【右侧内容,后台自定义】
您需要登录后才可以回帖 登录 | 立即加入

本版积分规则

Archiver|小黑屋| 蓝光电影网 |网站地图

Copyright © 2021 Comsenz Inc. Powered by 蓝光电影网

蓝光电影网

本站内容由用户自主分享和转载自互联网,转载目的在于传递更多信息,并不代表本网赞同其观点和对其真实性负责。

如有侵权、违反国家法律政策行为,请联系我们,我们会第一时间及时清除和处理!

举报反馈邮箱:[email protected]

快速回复 返回顶部 返回列表