找回密码

蓝光电影网

查看: 67|回复: 1

[惊悚] 母亲.Mother.2019.SPANISH.1080p.BluRay.x264.DD5.1-HANDJOB 11.35GB

[复制链接]
蓝光币
1080
发表于 2023-1-10 18:05:47 | 显示全部楼层 |阅读模式


◎标  题 母亲
◎译  名 Mother
◎片  名 Madre
◎年  代 2019
◎产  地 西班牙 / 法国
◎类  别 惊悚
◎语  言 西班牙语 / 法语
◎上映日期 2019-08-30(威尼斯电影节) / 2019-11-15(西班牙) / 2020-07-22(法国)
◎IMDb评分 6.6/10 (1925人评价)
◎IMDb链接 https://www.imdb.com/title/tt9234450/
◎豆瓣评分 7.4/10 (674人评价)
◎豆瓣链接 https://movie.douban.com/subject/30444755/
◎片  长 130分钟
◎导  演 罗德里戈·索罗戈延 Rodrigo Sorogoyen
◎编  剧 罗德里戈·索罗戈延 Rodrigo Sorogoyen
       伊莎贝尔·培尼亚 Isabel Peña
◎演  员 玛尔塔·涅托 Marta Nieto
       裘斯·普瑞尔 Jules Porier
       亚历克斯·布伦德穆尔 Àlex Brendemühl
       安妮·康斯金尼 Anne Consigny
       弗雷德里克·皮耶罗 Frédéric Pierrot
       劳尔·普列托 Raúl Prieto
       布兰卡·阿皮兰兹 Blanca Apilánez
◎简  介
    伊莲娜的儿子伊万在六岁那年不谨慎在法国的一个海滩走丢了。十年后,伊莲娜在这片海滩上工作生活,渐渐走出丧子的阴霾。一天,伊莲娜无意中碰到了一个名叫让的法国少年,长相与伊万极为类似,令伊莲娜深受震动。随着两人关系的逐步加深,危机也渐渐出现……本片改编自2017年同名短片,饰演伊莲娜的西班牙演员玛尔塔·涅托凭仗本片荣获第76届威尼斯电影节地平线单元最好女演员奖。
  1. Video
  2. ID                                       : 1
  3. Format                                   : AVC
  4. Format/Info                              : Advanced Video Codec
  5. Format profile                           : [email protected]
  6. Format settings                          : CABAC / 5 Ref Frames
  7. Format settings, CABAC                   : Yes
  8. Format settings, Reference frames        : 5 frames
  9. Codec ID                                 : V_MPEG4/ISO/AVC
  10. Duration                                 : 2 h 9 min
  11. Bit rate                                 : 11.9 Mb/s
  12. Width                                    : 1 920 pixels
  13. Height                                   : 804 pixels
  14. Display aspect ratio                     : 2.40:1
  15. Frame rate mode                          : Constant
  16. Frame rate                               : 23.976 (24000/1001) FPS
  17. Color space                              : YUV
  18. Chroma subsampling                       : 4:2:0
  19. Bit depth                                : 8 bits
  20. Scan type                                : Progressive
  21. Bits/(Pixel*Frame)                       : 0.321
  22. Stream size                              : 10.8 GiB (95%)
  23. Writing library                          : x264 core 163 r3060 5db6aa6
  24. Encoding settings                        : cabac=1 / ref=5 / deblock=1:-3:-3 / analyse=0x3:0x133 / me=umh / subme=10 / psy=1 / psy_rd=1.00:0.00 / mixed_ref=1 / me_range=32 / chroma_me=1 / trellis=2 / 8x8dct=1 / cqm=0 / deadzone=21,11 / fast_pskip=0 / chroma_qp_offset=-2 / threads=25 / lookahead_threads=6 / sliced_threads=0 / nr=0 / decimate=0 / interlaced=0 / bluray_compat=0 / constrained_intra=0 / bframes=16 / b_pyramid=2 / b_adapt=2 / b_bias=0 / direct=3 / weightb=1 / open_gop=0 / weightp=1 / keyint=240 / keyint_min=24 / scenecut=40 / intra_refresh=0 / rc_lookahead=60 / rc=crf / mbtree=0 / crf=16.2 / qcomp=0.60 / qpmin=0 / qpmax=69 / qpstep=4 / vbv_maxrate=62500 / vbv_bufsize=78125 / crf_max=0.0 / nal_hrd=none / filler=0 / ip_ratio=1.40 / pb_ratio=1.30 / aq=1:0.70
  25. Default                                  : Yes
  26. Forced                                   : No
  27. Color range                              : Limited
  28. Color primaries                          : BT.709
  29. Transfer characteristics                 : BT.709
  30. Matrix coefficients                      : BT.709
  31. Audio
  32. ID                                       : 2
  33. Format                                   : AC-3
  34. Format/Info                              : Audio Coding 3
  35. Commercial name                          : Dolby Digital
  36. Codec ID                                 : A_AC3
  37. Duration                                 : 2 h 9 min
  38. Bit rate mode                            : Constant
  39. Bit rate                                 : 640 kb/s
  40. Channel(s)                               : 6 channels
  41. Channel layout                           : L R C LFE Ls Rs
  42. Sampling rate                            : 48.0 kHz
  43. Frame rate                               : 31.250 FPS (1536 SPF)
  44. Compression mode                         : Lossy
  45. Stream size                              : 594 MiB (5%)
  46. Language                                 : Spanish
  47. Service kind                             : Complete Main
  48. Default                                  : Yes
  49. Forced                                   : No
  50. Text #1
  51. ID                                       : 3
  52. Format                                   : UTF-8
  53. Codec ID                                 : S_TEXT/UTF8
  54. Codec ID/Info                            : UTF-8 Plain Text
  55. Duration                                 : 2 h 2 min
  56. Bit rate                                 : 46 b/s
  57. Frame rate                               : 0.219 FPS
  58. Count of elements                        : 1611
  59. Stream size                              : 41.6 KiB (0%)
  60. Language                                 : English
  61. Default                                  : Yes
  62. Forced                                   : No
  63. Text #2
  64. ID                                       : 4
  65. Format                                   : UTF-8
  66. Codec ID                                 : S_TEXT/UTF8
  67. Codec ID/Info                            : UTF-8 Plain Text
  68. Duration                                 : 2 h 8 min
  69. Bit rate                                 : 18 b/s
  70. Frame rate                               : 0.089 FPS
  71. Count of elements                        : 682
  72. Stream size                              : 17.8 KiB (0%)
  73. Language                                 : French
  74. Default                                  : No
  75. Forced                                   : No
  76. Text #3
  77. ID                                       : 5
  78. Format                                   : UTF-8
  79. Codec ID                                 : S_TEXT/UTF8
  80. Codec ID/Info                            : UTF-8 Plain Text
  81. Duration                                 : 2 h 9 min
  82. Bit rate                                 : 52 b/s
  83. Frame rate                               : 0.209 FPS
  84. Count of elements                        : 1619
  85. Stream size                              : 49.5 KiB (0%)
  86. Title                                    : SDH
  87. Language                                 : French
  88. Default                                  : No
  89. Forced                                   : No
  90. Menu
  91. 00:00:00.000                             : Chapter 1
  92. 00:06:19.880                             : Chapter 2
  93. 00:16:12.972                             : Chapter 3
  94. 00:24:38.018                             : Chapter 4
  95. 00:32:18.520                             : Chapter 5
  96. 00:41:22.230                             : Chapter 6
  97. 00:50:03.167                             : Chapter 7
  98. 00:58:33.385                             : Chapter 8
  99. 01:04:56.935                             : Chapter 9
  100. 01:14:07.777                             : Chapter 10
  101. 01:25:01.096                             : Chapter 11
  102. 01:32:25.040                             : Chapter 12
  103. 01:43:04.303                             : Chapter 13
  104. 01:49:37.863                             : Chapter 14
  105. 01:56:11.673                             : Chapter 15
  106. 02:04:15.949                             : Chapter 16
复制代码











回复

使用道具 举报

蓝光币
1
发表于 2023-1-17 09:59:21 | 显示全部楼层

楼主太厉害了!楼主,电影应该很好看我觉得蓝光电影网真是个好地方!
回复 支持 反对

使用道具 举报

懒得打字嘛,点击右侧快捷回复 【右侧内容,后台自定义】
您需要登录后才可以回帖 登录 | 立即加入

本版积分规则

Archiver|小黑屋| 蓝光电影网 |网站地图

Copyright © 2021 Comsenz Inc. Powered by 蓝光电影网

蓝光电影网

本站内容由用户自主分享和转载自互联网,转载目的在于传递更多信息,并不代表本网赞同其观点和对其真实性负责。

如有侵权、违反国家法律政策行为,请联系我们,我们会第一时间及时清除和处理!

举报反馈邮箱:[email protected]

快速回复 返回顶部 返回列表