找回密码

蓝光电影网

查看: 104|回复: 3

[剧情] 我们的家园.Utama.2022.SPANISH.1080p.BluRay.x264.DTS-MT 7.28GB

[复制链接]
蓝光币
1082
发表于 2023-1-10 18:05:48 | 显示全部楼层 |阅读模式


◎标  题 我们的故里
◎译  名 高原上的家屋(台) / Our Home / 无雨问苍天(港)
◎片  名 Utama
◎年  代 2022
◎产  地 玻利维亚 / 乌拉圭 / 法国
◎类  别 剧情
◎语  言 克丘亚语 / 西班牙语
◎上映日期 2022-01-22(圣丹斯电影节)
◎IMDb评分 7.6/10 (703人评价)
◎IMDb链接 https://www.imdb.com/title/tt10984580/
◎豆瓣评分 7.3/10 (297人评价)
◎豆瓣链接 https://movie.douban.com/subject/35444969/
◎片  长 87分钟
◎导  演 亚历杭德罗·洛艾萨·格里西 Alejandro Loayza Grisi
◎编  剧 亚历杭德罗·洛艾萨·格里西 Alejandro Loayza Grisi
◎演  员 何塞·卡尔西纳 José Calcina
       路易莎·基斯佩 Luisa Quispe
       桑托斯·肖克 Santos Choque
◎简  介
    天气枯燥的玻利维亚高地,一对年老的、以放牧羊驼为生的克丘亚族佳耦一向在这里过着相濡以沫的生活。但一场多年难遇的大水灾让他们本就拮据的生活落井下石,这不但威胁到他们自己,还威胁到全部村落的生死。夫妻俩的孙子闻讯从城市返回,想让他们与自己一路进城生活,但这对早已习惯村落生活的夫妻俩来说,又是一个严酷的应战。两代、三人将以分歧的方式看待社会与自然的变化,以及生命的意义。
  1. Video
  2. ID                                       : 1
  3. Format                                   : AVC
  4. Format/Info                              : Advanced Video Codec
  5. Format profile                           : [email protected]
  6. Format settings                          : CABAC / 5 Ref Frames
  7. Format settings, CABAC                   : Yes
  8. Format settings, Reference frames        : 5 frames
  9. Codec ID                                 : V_MPEG4/ISO/AVC
  10. Duration                                 : 1 h 27 min
  11. Bit rate                                 : 10.4 Mb/s
  12. Width                                    : 1 920 pixels
  13. Height                                   : 804 pixels
  14. Display aspect ratio                     : 2.40:1
  15. Frame rate mode                          : Constant
  16. Frame rate                               : 23.976 (24000/1001) FPS
  17. Color space                              : YUV
  18. Chroma subsampling                       : 4:2:0
  19. Bit depth                                : 8 bits
  20. Scan type                                : Progressive
  21. Bits/(Pixel*Frame)                       : 0.280
  22. Stream size                              : 6.35 GiB (87%)
  23. Writing library                          : x264 core 157 r2938 2b00a84 [email protected] Mod
  24. Encoding settings                        : cabac=1 / ref=5 / deblock=1:-3:-3 / analyse=0x3:0x133 / me=umh / subme=10 / psy=1 / psy_rd=1.05:0.00 / mixed_ref=1 / me_range=32 / chroma_me=1 / trellis=2 / 8x8dct=1 / cqm=0 / deadzone=21,11 / fast_pskip=0 / chroma_qp_offset=-2 / threads=12 / lookahead_threads=2 / sliced_threads=0 / nr=0 / decimate=0 / interlaced=0 / bluray_compat=0 / constrained_intra=0 / bframes=8 / b_pyramid=2 / b_adapt=2 / b_bias=0 / direct=3 / weightb=1 / open_gop=0 / weightp=2 / keyint=250 / keyint_min=24 / scenecut=40 / intra_refresh=0 / rc_lookahead=250 / rc=crf / mbtree=0 / crf=16.8 / qcomp=0.60 / qpmin=0 / qpmax=69 / qpstep=4 / vbv_maxrate=62500 / vbv_bufsize=78125 / crf_max=0.0 / nal_hrd=none / filler=0 / ip_ratio=1.30 / pb_ratio=1.20 / aq=3:0.80
  25. Language                                 : Spanish
  26. Default                                  : Yes
  27. Forced                                   : No
  28. Color range                              : Limited
  29. Color primaries                          : BT.709
  30. Matrix coefficients                      : BT.709
  31. Audio
  32. ID                                       : 2
  33. Format                                   : DTS
  34. Format/Info                              : Digital Theater Systems
  35. Codec ID                                 : A_DTS
  36. Duration                                 : 1 h 27 min
  37. Bit rate mode                            : Constant
  38. Bit rate                                 : 1 509 kb/s
  39. Channel(s)                               : 6 channels
  40. Channel layout                           : C L R Ls Rs LFE
  41. Sampling rate                            : 48.0 kHz
  42. Frame rate                               : 93.750 FPS (512 SPF)
  43. Bit depth                                : 24 bits
  44. Compression mode                         : Lossy
  45. Stream size                              : 947 MiB (13%)
  46. Language                                 : Spanish
  47. Default                                  : Yes
  48. Forced                                   : No
  49. Text
  50. ID                                       : 3
  51. Format                                   : UTF-8
  52. Codec ID                                 : S_TEXT/UTF8
  53. Codec ID/Info                            : UTF-8 Plain Text
  54. Duration                                 : 1 h 18 min
  55. Bit rate                                 : 23 b/s
  56. Frame rate                               : 0.101 FPS
  57. Count of elements                        : 478
  58. Stream size                              : 13.6 KiB (0%)
  59. Language                                 : English
  60. Default                                  : No
  61. Forced                                   : No
  62. Menu
  63. 00:00:00.000                             : en:Chapter 01
  64. 00:09:24.272                             : en:Chapter 02
  65. 00:18:56.677                             : en:Chapter 03
  66. 00:28:46.183                             : en:Chapter 04
  67. 00:38:10.038                             : en:Chapter 05
  68. 00:47:56.791                             : en:Chapter 06
  69. 00:55:54.643                             : en:Chapter 07
  70. 01:04:23.860                             : en:Chapter 08
  71. 01:12:19.627                             : en:Chapter 09
  72. 01:18:54.146                             : en:Chapter 10
复制代码











回复

使用道具 举报

蓝光币
83
发表于 2023-1-10 19:27:59 | 显示全部楼层
楼主辛苦了!楼主威武!
回复 支持 反对

使用道具 举报

蓝光币
682
发表于 2023-1-10 23:04:17 | 显示全部楼层
谢谢分享!!!!!
回复

使用道具 举报

蓝光币
193
发表于 2023-1-11 12:16:12 | 显示全部楼层
感谢楼主,再发精品
回复 支持 反对

使用道具 举报

懒得打字嘛,点击右侧快捷回复 【右侧内容,后台自定义】
您需要登录后才可以回帖 登录 | 立即加入

本版积分规则

Archiver|小黑屋| 蓝光电影网 |网站地图

Copyright © 2021 Comsenz Inc. Powered by 蓝光电影网

蓝光电影网

本站内容由用户自主分享和转载自互联网,转载目的在于传递更多信息,并不代表本网赞同其观点和对其真实性负责。

如有侵权、违反国家法律政策行为,请联系我们,我们会第一时间及时清除和处理!

举报反馈邮箱:[email protected]

快速回复 返回顶部 返回列表