找回密码

蓝光电影网

查看: 77|回复: 1

[剧情] 姜戈:西部夺命金.Johnny.Hamlet.1968.ITALIAN.1080p.BluRay.x264.DTS-NOGRP 5.21GB

[复制链接]
蓝光币
1084
发表于 2023-1-10 18:05:48 | 显示全部楼层 |阅读模式


◎标  题 姜戈:西部夺命金
◎译  名 姜戈:掘墓人的期待 / Django porte sa croix / Django - die Totengräber warten schon
◎片  名 Quella sporca storia nel west
◎年  代 1969
◎产  地 意大利
◎类  别 剧情 / 西部
◎语  言 意大利语
◎上映日期 1969-03-22(意大利)
◎IMDb评分 6.5/10 (565人评价)
◎IMDb链接 https://www.imdb.com/title/tt0063479/
◎豆瓣链接 https://movie.douban.com/subject/25941337/
◎片  长 91分钟
◎导  演 恩佐·卡斯特拉里 Enzo G. Castellari
◎编  剧 Francesco Scardamaglia Francesco Scardamaglia
◎演  员 安德烈·焦尔达纳 Andrea Giordana
       吉尔伯特·罗兰 Gilbert Roland
        John Bartha
◎简  介
    On his way back from the Civil War, Johnny Hamilton is visited in his sleep by the ghost of his father who lets him know that he has been murdered and who asks him to avenge him. Back in the family ranch, Johnny finds that not only has his father been killed but that Gertrude, his mother, has married her late husband's brother Claude. The latter is now the owner of the ranch and of all the properties of the deceased. Polonius, a ruthless bandit, is supposed to have killed Johnny's father. But couldn't it be Claude...?
  1. Video
  2. ID                                       : 1
  3. Format                                   : AVC
  4. Format/Info                              : Advanced Video Codec
  5. Format profile                           : [email protected]
  6. Format settings                          : CABAC / 5 Ref Frames
  7. Format settings, CABAC                   : Yes
  8. Format settings, Reference frames        : 5 frames
  9. Codec ID                                 : V_MPEG4/ISO/AVC
  10. Duration                                 : 1 h 34 min
  11. Bit rate                                 : 6 951 kb/s
  12. Width                                    : 1 920 pixels
  13. Height                                   : 816 pixels
  14. Display aspect ratio                     : 2.35:1
  15. Frame rate mode                          : Constant
  16. Frame rate                               : 23.976 (24000/1001) FPS
  17. Color space                              : YUV
  18. Chroma subsampling                       : 4:2:0
  19. Bit depth                                : 8 bits
  20. Scan type                                : Progressive
  21. Bits/(Pixel*Frame)                       : 0.185
  22. Stream size                              : 4.61 GiB (89%)
  23. Writing library                          : x264 core 164 r3103 941cae6
  24. Encoding settings                        : cabac=1 / ref=5 / deblock=1:-3:-3 / analyse=0x3:0x113 / me=umh / subme=8 / psy=1 / psy_rd=1.00:0.15 / mixed_ref=1 / me_range=16 / chroma_me=1 / trellis=1 / 8x8dct=1 / cqm=0 / deadzone=21,11 / fast_pskip=0 / chroma_qp_offset=-3 / threads=18 / lookahead_threads=3 / sliced_threads=0 / nr=0 / decimate=1 / interlaced=0 / bluray_compat=0 / constrained_intra=0 / bframes=3 / b_pyramid=2 / b_adapt=2 / b_bias=0 / direct=3 / weightb=1 / open_gop=0 / weightp=2 / keyint=250 / keyint_min=23 / scenecut=40 / intra_refresh=0 / rc_lookahead=50 / rc=crf / mbtree=1 / crf=20.0 / qcomp=0.60 / qpmin=0 / qpmax=69 / qpstep=4 / ip_ratio=1.40 / aq=1:1.00
  25. Language                                 : English
  26. Default                                  : No
  27. Forced                                   : No
  28. Color range                              : Limited
  29. Color primaries                          : BT.709
  30. Transfer characteristics                 : BT.709
  31. Matrix coefficients                      : BT.709
  32. Audio #1
  33. ID                                       : 2
  34. ID in the original source medium         : 4353 (0x1101)
  35. Format                                   : DTS
  36. Format/Info                              : Digital Theater Systems
  37. Codec ID                                 : A_DTS
  38. Duration                                 : 1 h 34 min
  39. Bit rate mode                            : Constant
  40. Bit rate                                 : 447 kb/s
  41. Channel(s)                               : 2 channels
  42. Channel layout                           : L R
  43. Sampling rate                            : 48.0 kHz
  44. Frame rate                               : 93.750 FPS (512 SPF)
  45. Bit depth                                : 16 bits
  46. Compression mode                         : Lossy
  47. Stream size                              : 304 MiB (6%)
  48. Title                                    : Stereo
  49. Language                                 : Italian
  50. Default                                  : No
  51. Forced                                   : No
  52. Original source medium                   : Blu-ray
  53. Audio #2
  54. ID                                       : 3
  55. ID in the original source medium         : 4354 (0x1102)
  56. Format                                   : DTS
  57. Format/Info                              : Digital Theater Systems
  58. Codec ID                                 : A_DTS
  59. Duration                                 : 1 h 34 min
  60. Bit rate mode                            : Constant
  61. Bit rate                                 : 447 kb/s
  62. Channel(s)                               : 2 channels
  63. Channel layout                           : L R
  64. Sampling rate                            : 48.0 kHz
  65. Frame rate                               : 93.750 FPS (512 SPF)
  66. Bit depth                                : 16 bits
  67. Compression mode                         : Lossy
  68. Stream size                              : 304 MiB (6%)
  69. Title                                    : Stereo
  70. Language                                 : English
  71. Default                                  : No
  72. Forced                                   : No
  73. Original source medium                   : Blu-ray
  74. Text #1
  75. ID                                       : 4
  76. Format                                   : UTF-8
  77. Codec ID                                 : S_TEXT/UTF8
  78. Codec ID/Info                            : UTF-8 Plain Text
  79. Duration                                 : 1 h 33 min
  80. Bit rate                                 : 31 b/s
  81. Frame rate                               : 0.123 FPS
  82. Count of elements                        : 684
  83. Stream size                              : 21.3 KiB (0%)
  84. Language                                 : English
  85. Default                                  : Yes
  86. Forced                                   : No
  87. Text #2
  88. ID                                       : 5
  89. ID in the original source medium         : 4610 (0x1202)
  90. Format                                   : PGS
  91. Muxing mode                              : zlib
  92. Codec ID                                 : S_HDMV/PGS
  93. Codec ID/Info                            : Picture based subtitle format used on BDs/HD-DVDs
  94. Duration                                 : 1 h 34 min
  95. Bit rate                                 : 10.7 kb/s
  96. Frame rate                               : 0.242 FPS
  97. Count of elements                        : 1369
  98. Stream size                              : 7.24 MiB (0%)
  99. Language                                 : English
  100. Default                                  : No
  101. Forced                                   : No
  102. Original source medium                   : Blu-ray
  103. Menu
  104. 00:00:00.000                             : en:Chapter 01
  105. 00:06:43.903                             : en:Chapter 02
  106. 00:16:37.496                             : en:Chapter 03
  107. 00:22:22.799                             : en:Chapter 04
  108. 00:30:52.475                             : en:Chapter 05
  109. 00:38:14.875                             : en:Chapter 06
  110. 00:48:35.329                             : en:Chapter 07
  111. 01:00:34.881                             : en:Chapter 08
  112. 01:09:16.861                             : en:Chapter 09
  113. 01:20:44.798                             : en:Chapter 10
复制代码











回复

使用道具 举报

蓝光币
56
发表于 2023-1-10 22:59:04 | 显示全部楼层
姜戈是个传奇吗?总能看到这个名字。
回复 支持 反对

使用道具 举报

懒得打字嘛,点击右侧快捷回复 【右侧内容,后台自定义】
您需要登录后才可以回帖 登录 | 立即加入

本版积分规则

Archiver|小黑屋| 蓝光电影网 |网站地图

Copyright © 2021 Comsenz Inc. Powered by 蓝光电影网

蓝光电影网

本站内容由用户自主分享和转载自互联网,转载目的在于传递更多信息,并不代表本网赞同其观点和对其真实性负责。

如有侵权、违反国家法律政策行为,请联系我们,我们会第一时间及时清除和处理!

举报反馈邮箱:[email protected]

快速回复 返回顶部 返回列表