找回密码

蓝光电影网

查看: 12|回复: 0

[爱情] 纽约圣诞节.A.Christmas.In.New.York.2016.1080p.AMZN.WEBRip.DDP2.0.x264-PTerWEB 4.04GB

[复制链接]
蓝光币
1082
发表于 2023-1-10 18:13:30 | 显示全部楼层 |阅读模式


◎标  题 纽约圣诞节
◎译  名 A Night In New York
◎片  名 A New York Christmas
◎年  代 2016
◎产  地 美国
◎类  别 恋爱
◎语  言 英语
◎IMDb评分 4.7/10 (166人评价)
◎IMDb链接 https://www.imdb.com/title/tt5086384/
◎豆瓣评分 6.5/10 (128人评价)
◎豆瓣链接 https://movie.douban.com/subject/26914054/
◎片  长 81分钟
◎演  员 罗斯·麦克科尔 Ross McCall
       杰米·雷·纽曼 Jaime Ray Newman
       吉米·巴姆博 Jamie Bamber
       琳达·朴 Linda Park
       翠茜·索姆斯 Tracie Thoms
       理查德·赫德 Richard Herd
◎简  介
    Several romantic stories unfold in a New York hotel the week before Christmas.
  1. Video
  2. ID                                       : 1
  3. Format                                   : AVC
  4. Format/Info                              : Advanced Video Codec
  5. Format profile                           : [email protected]
  6. Format settings                          : CABAC / 4 Ref Frames
  7. Format settings, CABAC                   : Yes
  8. Format settings, Reference frames        : 4 frames
  9. Codec ID                                 : V_MPEG4/ISO/AVC
  10. Duration                                 : 1 h 29 min
  11. Bit rate                                 : 6 210 kb/s
  12. Width                                    : 1 920 pixels
  13. Height                                   : 816 pixels
  14. Display aspect ratio                     : 2.35:1
  15. Frame rate mode                          : Constant
  16. Frame rate                               : 23.976 (24000/1001) FPS
  17. Color space                              : YUV
  18. Chroma subsampling                       : 4:2:0
  19. Bit depth                                : 8 bits
  20. Scan type                                : Progressive
  21. Bits/(Pixel*Frame)                       : 0.165
  22. Stream size                              : 3.90 GiB (96%)
  23. Default                                  : Yes
  24. Forced                                   : No
  25. Color range                              : Limited
  26. Color primaries                          : BT.709
  27. Transfer characteristics                 : BT.709
  28. Matrix coefficients                      : BT.709
  29. Audio
  30. ID                                       : 2
  31. Format                                   : E-AC-3
  32. Format/Info                              : Enhanced AC-3
  33. Commercial name                          : Dolby Digital Plus
  34. Codec ID                                 : A_EAC3
  35. Duration                                 : 1 h 29 min
  36. Bit rate mode                            : Constant
  37. Bit rate                                 : 224 kb/s
  38. Channel(s)                               : 2 channels
  39. Channel layout                           : L R
  40. Sampling rate                            : 48.0 kHz
  41. Frame rate                               : 31.250 FPS (1536 SPF)
  42. Compression mode                         : Lossy
  43. Stream size                              : 144 MiB (3%)
  44. Language                                 : English
  45. Service kind                             : Complete Main
  46. Default                                  : Yes
  47. Forced                                   : No
  48. Text
  49. ID                                       : 3
  50. Format                                   : UTF-8
  51. Codec ID                                 : S_TEXT/UTF8
  52. Codec ID/Info                            : UTF-8 Plain Text
  53. Duration                                 : 1 h 29 min
  54. Bit rate                                 : 58 b/s
  55. Frame rate                               : 0.257 FPS
  56. Count of elements                        : 1377
  57. Stream size                              : 38.1 KiB (0%)
  58. Language                                 : English
  59. Default                                  : No
  60. Forced                                   : No
复制代码











回复

使用道具 举报

懒得打字嘛,点击右侧快捷回复 【右侧内容,后台自定义】
您需要登录后才可以回帖 登录 | 立即加入

本版积分规则

Archiver|小黑屋| 蓝光电影网 |网站地图

Copyright © 2021 Comsenz Inc. Powered by 蓝光电影网

蓝光电影网

本站内容由用户自主分享和转载自互联网,转载目的在于传递更多信息,并不代表本网赞同其观点和对其真实性负责。

如有侵权、违反国家法律政策行为,请联系我们,我们会第一时间及时清除和处理!

举报反馈邮箱:[email protected]

快速回复 返回顶部 返回列表