找回密码

蓝光电影网

查看: 32|回复: 0

[REMUX.HEVC] 火星人入侵记.Invaders.from.Mars.1953.2160p.BluRay.REMUX.HEVC.DTS-HD.MA.2.0-FGT 47.31GB

[复制链接]
蓝光币
1084
发表于 2023-1-11 22:01:55 | 显示全部楼层 |阅读模式


◎标  题 火星人入侵记
◎片  名 Invaders from Mars
◎年  代 1953
◎产  地 美国
◎类  别 科幻 / 可骇
◎语  言 英语
◎上映日期 1953-04-22
◎IMDb评分 6.3/10 (8136人评价)
◎IMDb链接 https://www.imdb.com/title/tt0045917/
◎豆瓣评分 6.3/10 (97人评价)
◎豆瓣链接 https://movie.douban.com/subject/2265798/
◎片  长 78 分钟 / UK: 83 分钟
◎导  演 威廉·卡梅伦·孟席斯 William Cameron Menzies
◎编  剧 约翰·塔克·巴特尔 John Tucker Battle
       理查德·布莱克 Richard Blake
◎演  员 Helena Carter Helena Carter
       阿瑟·弗兰兹 Arthur Franz
       吉米·亨特 Jimmy Hunt
       托德·卡恩茨 Todd Karns
       Luce Potter Luce Potter
       Lock Martin Lock Martin
       Harry Monty Harry Monty
       雅尼娜·佩罗 Janine Perreau
       Robert Shayne Robert Shayne
       沃尔特·桑德 Walter Sande
       米尔本·斯通 Milburn Stone
       Max Wagner Max Wagner
       弗兰克·维尔考克斯 Frank Wilcox
       Max Palmer Max Palmer
       Bob Herron Bob Herron
       Gil Herman Gil Herman
       菲·贝克 Fay Baker
       希拉里·布鲁克 Hillary Brooke
       道格拉斯肯尼迪 Douglas Kennedy
       利夫·埃里克森 Leif Erickson
       莫里斯·安克鲁姆 Morris Ankrum
       芭芭拉·比林斯利 Barbara Billingsley
       彼得·布罗科 Peter Brocco
       Charles Cane Charles Cane
       Tommy Cottonaro Tommy Cottonaro
       John Eldredge John Eldredge
       理查德·迪肯 Richard Deacon
       Pete Dunn Pete Dunn
       William Forrest William Forrest
       伯特·弗里德 Bert Freed
       威廉·菲普斯 William Phipps
◎简  介
    小大卫麦克林有一个题目——镇上一切的成年人在看到希奇的灯光在他家四周的一座小山后未几就起头做出希奇的行为。随着越来越多的成年人遭到影响,他必须向标致的布莱克医生追求庇护。终极,他必须以一个分歧平常的结论来面临自己的恐惧。
  1. Video
  2. ID                                       : 1
  3. ID in the original source medium         : 4113 (0x1011)
  4. Format                                   : HEVC
  5. Format/Info                              : High Efficiency Video Coding
  6. Format profile                           : Main [email protected]@High
  7. HDR format                               : SMPTE ST 2086, HDR10 compatible
  8. Codec ID                                 : V_MPEGH/ISO/HEVC
  9. Duration                                 : 1 h 19 min
  10. Bit rate                                 : 81.7 Mb/s
  11. Width                                    : 3 840 pixels
  12. Height                                   : 2 160 pixels
  13. Display aspect ratio                     : 16:9
  14. Frame rate mode                          : Constant
  15. Frame rate                               : 23.976 (24000/1001) FPS
  16. Color space                              : YUV
  17. Chroma subsampling                       : 4:2:0 (Type 2)
  18. Bit depth                                : 10 bits
  19. Bits/(Pixel*Frame)                       : 0.411
  20. Stream size                              : 45.4 GiB (96%)
  21. Language                                 : English
  22. Default                                  : No
  23. Forced                                   : No
  24. Color range                              : Limited
  25. Color primaries                          : BT.2020
  26. Transfer characteristics                 : PQ
  27. Matrix coefficients                      : BT.2020 non-constant
  28. Mastering display color primaries        : BT.2020
  29. Mastering display luminance              : min: 0.0001 cd/m2, max: 1000 cd/m2
  30. Maximum Content Light Level              : 1000 cd/m2
  31. Maximum Frame-Average Light Level        : 678 cd/m2
  32. Original source medium                   : Blu-ray
  33. Audio #1
  34. ID                                       : 2
  35. ID in the original source medium         : 4352 (0x1100)
  36. Format                                   : DTS XLL
  37. Format/Info                              : Digital Theater Systems
  38. Commercial name                          : DTS-HD Master Audio
  39. Codec ID                                 : A_DTS
  40. Duration                                 : 1 h 19 min
  41. Bit rate mode                            : Variable
  42. Bit rate                                 : 1 259 kb/s
  43. Channel(s)                               : 2 channels
  44. Channel layout                           : L R
  45. Sampling rate                            : 48.0 kHz
  46. Frame rate                               : 93.750 FPS (512 SPF)
  47. Bit depth                                : 24 bits
  48. Compression mode                         : Lossless
  49. Stream size                              : 716 MiB (1%)
  50. Title                                    : DTS-HD MA 2.0
  51. Language                                 : English
  52. Default                                  : Yes
  53. Forced                                   : No
  54. Original source medium                   : Blu-ray
  55. Audio #2
  56. ID                                       : 3
  57. Format                                   : AC-3
  58. Format/Info                              : Audio Coding 3
  59. Commercial name                          : Dolby Digital
  60. Codec ID                                 : A_AC3
  61. Duration                                 : 1 h 19 min
  62. Bit rate mode                            : Constant
  63. Bit rate                                 : 640 kb/s
  64. Channel(s)                               : 2 channels
  65. Channel layout                           : L R
  66. Sampling rate                            : 48.0 kHz
  67. Frame rate                               : 31.250 FPS (1536 SPF)
  68. Compression mode                         : Lossy
  69. Stream size                              : 364 MiB (1%)
  70. Title                                    : DD 2.0
  71. Language                                 : English
  72. Service kind                             : Complete Main
  73. Default                                  : No
  74. Forced                                   : No
  75. Audio #3
  76. ID                                       : 4
  77. ID in the original source medium         : 4353 (0x1101)
  78. Format                                   : DTS XLL
  79. Format/Info                              : Digital Theater Systems
  80. Commercial name                          : DTS-HD Master Audio
  81. Codec ID                                 : A_DTS
  82. Duration                                 : 1 h 19 min
  83. Bit rate mode                            : Variable
  84. Bit rate                                 : 1 472 kb/s
  85. Channel(s)                               : 2 channels
  86. Channel layout                           : L R
  87. Sampling rate                            : 48.0 kHz
  88. Frame rate                               : 93.750 FPS (512 SPF)
  89. Bit depth                                : 24 bits
  90. Compression mode                         : Lossless
  91. Stream size                              : 837 MiB (2%)
  92. Title                                    : DTS-HD MA 2.0
  93. Language                                 : Spanish
  94. Default                                  : No
  95. Forced                                   : No
  96. Original source medium                   : Blu-ray
  97. Text #1
  98. ID                                       : 5
  99. Format                                   : UTF-8
  100. Codec ID                                 : S_TEXT/UTF8
  101. Codec ID/Info                            : UTF-8 Plain Text
  102. Duration                                 : 1 h 16 min
  103. Bit rate                                 : 60 b/s
  104. Frame rate                               : 0.191 FPS
  105. Count of elements                        : 877
  106. Stream size                              : 34.2 KiB (0%)
  107. Language                                 : English
  108. Default                                  : Yes
  109. Forced                                   : No
  110. Text #2
  111. ID                                       : 6
  112. Format                                   : UTF-8
  113. Codec ID                                 : S_TEXT/UTF8
  114. Codec ID/Info                            : UTF-8 Plain Text
  115. Duration                                 : 1 h 16 min
  116. Bit rate                                 : 63 b/s
  117. Frame rate                               : 0.202 FPS
  118. Count of elements                        : 930
  119. Stream size                              : 35.6 KiB (0%)
  120. Title                                    : SDH
  121. Language                                 : English
  122. Default                                  : No
  123. Forced                                   : No
  124. Text #3
  125. ID                                       : 7
  126. ID in the original source medium         : 4768 (0x12A0)
  127. Format                                   : PGS
  128. Muxing mode                              : zlib
  129. Codec ID                                 : S_HDMV/PGS
  130. Codec ID/Info                            : Picture based subtitle format used on BDs/HD-DVDs
  131. Duration                                 : 1 h 16 min
  132. Bit rate                                 : 41.1 kb/s
  133. Frame rate                               : 0.405 FPS
  134. Count of elements                        : 1868
  135. Stream size                              : 22.6 MiB (0%)
  136. Language                                 : English
  137. Default                                  : No
  138. Forced                                   : No
  139. Original source medium                   : Blu-ray
  140. Text #4
  141. ID                                       : 8
  142. ID in the original source medium         : 4769 (0x12A1)
  143. Format                                   : PGS
  144. Muxing mode                              : zlib
  145. Codec ID                                 : S_HDMV/PGS
  146. Codec ID/Info                            : Picture based subtitle format used on BDs/HD-DVDs
  147. Duration                                 : 1 h 18 min
  148. Bit rate                                 : 35.8 kb/s
  149. Frame rate                               : 0.376 FPS
  150. Count of elements                        : 1764
  151. Stream size                              : 20.0 MiB (0%)
  152. Language                                 : French
  153. Default                                  : No
  154. Forced                                   : No
  155. Original source medium                   : Blu-ray
  156. Text #5
  157. ID                                       : 9
  158. ID in the original source medium         : 4770 (0x12A2)
  159. Format                                   : PGS
  160. Muxing mode                              : zlib
  161. Codec ID                                 : S_HDMV/PGS
  162. Codec ID/Info                            : Picture based subtitle format used on BDs/HD-DVDs
  163. Duration                                 : 1 h 18 min
  164. Bit rate                                 : 33.9 kb/s
  165. Frame rate                               : 0.367 FPS
  166. Count of elements                        : 1720
  167. Stream size                              : 18.9 MiB (0%)
  168. Language                                 : German
  169. Default                                  : No
  170. Forced                                   : No
  171. Original source medium                   : Blu-ray
  172. Text #6
  173. ID                                       : 10
  174. ID in the original source medium         : 4771 (0x12A3)
  175. Format                                   : PGS
  176. Muxing mode                              : zlib
  177. Codec ID                                 : S_HDMV/PGS
  178. Codec ID/Info                            : Picture based subtitle format used on BDs/HD-DVDs
  179. Duration                                 : 1 h 18 min
  180. Bit rate                                 : 36.0 kb/s
  181. Frame rate                               : 0.363 FPS
  182. Count of elements                        : 1700
  183. Stream size                              : 20.1 MiB (0%)
  184. Language                                 : Italian
  185. Default                                  : No
  186. Forced                                   : No
  187. Original source medium                   : Blu-ray
  188. Text #7
  189. ID                                       : 11
  190. ID in the original source medium         : 4772 (0x12A4)
  191. Format                                   : PGS
  192. Muxing mode                              : zlib
  193. Codec ID                                 : S_HDMV/PGS
  194. Codec ID/Info                            : Picture based subtitle format used on BDs/HD-DVDs
  195. Duration                                 : 1 h 18 min
  196. Bit rate                                 : 19.3 kb/s
  197. Frame rate                               : 0.400 FPS
  198. Count of elements                        : 1876
  199. Stream size                              : 10.8 MiB (0%)
  200. Language                                 : Japanese
  201. Default                                  : No
  202. Forced                                   : No
  203. Original source medium                   : Blu-ray
  204. Text #8
  205. ID                                       : 12
  206. ID in the original source medium         : 4773 (0x12A5)
  207. Format                                   : PGS
  208. Muxing mode                              : zlib
  209. Codec ID                                 : S_HDMV/PGS
  210. Codec ID/Info                            : Picture based subtitle format used on BDs/HD-DVDs
  211. Duration                                 : 1 h 18 min
  212. Bit rate                                 : 27.8 kb/s
  213. Frame rate                               : 0.374 FPS
  214. Count of elements                        : 1754
  215. Stream size                              : 15.5 MiB (0%)
  216. Language                                 : Korean
  217. Default                                  : No
  218. Forced                                   : No
  219. Original source medium                   : Blu-ray
  220. Menu
  221. 00:00:00.000                             : en:Chapter 01
  222. 00:07:19.897                             : en:Chapter 02
  223. 00:15:44.735                             : en:Chapter 03
  224. 00:19:28.792                             : en:Chapter 04
  225. 00:27:30.857                             : en:Chapter 05
  226. 00:35:13.486                             : en:Chapter 06
  227. 00:42:14.406                             : en:Chapter 07
  228. 00:46:57.022                             : en:Chapter 08
  229. 00:51:14.321                             : en:Chapter 09
  230. 00:59:16.469                             : en:Chapter 10
  231. 01:08:25.518                             : en:Chapter 11
  232. 01:14:39.224                             : en:Chapter 12
复制代码











回复

使用道具 举报

懒得打字嘛,点击右侧快捷回复 【右侧内容,后台自定义】
您需要登录后才可以回帖 登录 | 立即加入

本版积分规则

Archiver|小黑屋| 蓝光电影网 |网站地图

Copyright © 2021 Comsenz Inc. Powered by 蓝光电影网

蓝光电影网

本站内容由用户自主分享和转载自互联网,转载目的在于传递更多信息,并不代表本网赞同其观点和对其真实性负责。

如有侵权、违反国家法律政策行为,请联系我们,我们会第一时间及时清除和处理!

举报反馈邮箱:[email protected]

快速回复 返回顶部 返回列表