找回密码

蓝光电影网

查看: 195|回复: 3

[REMUX.HEVC] 加勒比海盗5:死无对证[中文字幕].Pirates.of.the.Caribbean.Dead.Men.Tell.No.Tales.2017.PROPER.2160p.BluRay.REMUX.HEVC.DTS-HD.MA.TrueHD.7.1.Atmos-FGT 59.63GB

[复制链接]
蓝光币
1180
发表于 2023-1-11 22:02:03 | 显示全部楼层 |阅读模式


◎标  题 加勒比海盗5:死无对质
◎译  名 加勒比海盗:恶灵动身(港) / 加勒比海盗 神鬼奇航:死无对质(台) / 加勒比海盗5:亡灵的沉默 / 加勒比海盗5:亡者无言 / 加勒比海盗5:死人不会告发 / Pirates of the Caribbean 5
◎片  名 Pirates of the Caribbean: Dead Men Tell No Tales
◎年  代 2017
◎产  地 美国
◎类  别 行动 / 奇异 / 冒险
◎语  言 英语
◎上映日期 2017-05-26(中国大陆 / 美国)
◎IMDb评分 6.5/10 (314735人评价)
◎IMDb链接 https://www.imdb.com/title/tt1790809/
◎豆瓣评分 7.2/10 (355583人评价)
◎豆瓣链接 https://movie.douban.com/subject/6311303/
◎片  长 129分钟
◎导  演 艾斯彭·山德伯格 Espen Sandberg
       乔阿吉姆·罗恩尼 Joachim Rønning
◎编  剧 特里·鲁西奥 Terry Rossio
       泰德·艾略特 Ted Elliott
       斯图尔特·贝亚蒂耶 Stuart Beattie
       杰夫·内桑森 Jeff Nathanson
       杰·沃尔伯特 Jay Wolpert
◎演  员 约翰尼·德普 Johnny Depp
       布伦顿·思韦茨 Brenton Thwaites
       卡雅·斯考达里奥 Kaya Scodelario
       杰弗里·拉什 Geoffrey Rush
       哈维尔·巴登 Javier Bardem
       格什菲·法拉哈尼 Golshifteh Farahani
       奥兰多·布鲁姆 Orlando Bloom
       凯文·麦克纳利 Kevin McNally
       凯拉·奈特莉 Keira Knightley
       斯蒂芬·格拉汉姆 Stephen Graham
       大卫·文翰 David Wenham
       保罗·麦卡特尼 Paul McCartney
       马丁·科勒巴 Martin Klebba
       亚当·布朗 Adam Brown
       丹尼·基兰 Danny Kirrane
       马赫什·扎杜 Mahesh Jadu
       胡安·卡洛斯·凡希多 Juan Carlos Vellido
       派珀·奈恩 Piper Nairn
       安格斯·巴尼特 Angus Barnett
       罗伯特·摩根 Robert Morgan
       詹姆斯·麦凯 James Mackay
       安东尼·德拉托尔 Anthony De La Torre
◎简  介
    故事发生在《加勒比海盗3:天下的绝顶》沉船湾之战20年后。 男孩亨利(布兰顿·思怀兹 Brenton Thwaites 饰)随英国水兵返航寻觅被聚魂棺诅咒的父亲“深海阎王”威尔·特纳(奥兰多·布鲁姆 Orlando Bloom 饰),却在百慕大三角遭受被解封的亡灵萨拉查船主(哈维尔·巴登 Javier Bardem 饰)。获得自在的萨拉查屠尽加勒比海盗,征服了全部海域,手刃了“黑胡子”爱德华·蒂奇(伊恩·麦柯肖恩 Ian McShane 饰)的里海海盗王赫克托·巴博萨船主(杰弗里·拉什 Geoffrey Rush 饰)在女巫Haifaa Meni(格什菲·法拉哈尼 Golshifteh Farahani 饰)口中得知了萨拉查的实在目标:为寻觅他的宿敌杰克船主(约翰尼·德普 Johnny Depp 饰)。海盗的命运皆压在落魄的老杰克被封印的黑珍珠号,以及天文学家卡琳娜·史姑娘(卡雅·斯考达里奥 Kaya Scodelario 饰)口中的太古三叉戟上。
  1. Video
  2. ID                                       : 1
  3. ID in the original source medium         : 4113 (0x1011)
  4. Format                                   : HEVC
  5. Format/Info                              : High Efficiency Video Coding
  6. Format profile                           : Main [email protected]@High
  7. HDR format                               : SMPTE ST 2086, HDR10 compatible
  8. Codec ID                                 : V_MPEGH/ISO/HEVC
  9. Duration                                 : 2 h 9 min
  10. Bit rate                                 : 47.8 Mb/s
  11. Width                                    : 3 840 pixels
  12. Height                                   : 2 160 pixels
  13. Display aspect ratio                     : 16:9
  14. Frame rate mode                          : Constant
  15. Frame rate                               : 23.976 (24000/1001) FPS
  16. Color space                              : YUV
  17. Chroma subsampling                       : 4:2:0 (Type 2)
  18. Bit depth                                : 10 bits
  19. Bits/(Pixel*Frame)                       : 0.240
  20. Stream size                              : 43.1 GiB (72%)
  21. Language                                 : English
  22. Default                                  : No
  23. Forced                                   : No
  24. Color range                              : Limited
  25. Color primaries                          : BT.2020
  26. Transfer characteristics                 : PQ
  27. Matrix coefficients                      : BT.2020 non-constant
  28. Mastering display color primaries        : Display P3
  29. Mastering display luminance              : min: 0.0050 cd/m2, max: 1000 cd/m2
  30. Original source medium                   : Blu-ray
  31. Audio #1
  32. ID                                       : 2
  33. ID in the original source medium         : 4352 (0x1100)
  34. Format                                   : MLP FBA 16-ch
  35. Format/Info                              : Meridian Lossless Packing FBA with 16-channel presentation
  36. Commercial name                          : Dolby TrueHD with Dolby Atmos
  37. Codec ID                                 : A_TRUEHD
  38. Duration                                 : 2 h 9 min
  39. Bit rate mode                            : Variable
  40. Bit rate                                 : 8 918 kb/s
  41. Maximum bit rate                         : 11.9 Mb/s
  42. Channel(s)                               : 8 channels
  43. Channel layout                           : L R C LFE Ls Rs Lb Rb
  44. Sampling rate                            : 48.0 kHz
  45. Frame rate                               : 1 200.000 FPS (40 SPF)
  46. Bit depth                                : 24 bits
  47. Compression mode                         : Lossless
  48. Stream size                              : 8.04 GiB (13%)
  49. Title                                    : TrueHD 7.1 Atmos
  50. Language                                 : English
  51. Default                                  : Yes
  52. Forced                                   : No
  53. Original source medium                   : Blu-ray
  54. Number of dynamic objects                : 13
  55. Bed channel count                        : 1 channel
  56. Bed channel configuration                : LFE
  57. Audio #2
  58. ID                                       : 3
  59. Format                                   : DTS XLL
  60. Format/Info                              : Digital Theater Systems
  61. Commercial name                          : DTS-HD Master Audio
  62. Codec ID                                 : A_DTS
  63. Duration                                 : 2 h 9 min
  64. Bit rate mode                            : Variable
  65. Bit rate                                 : 4 207 kb/s
  66. Channel(s)                               : 8 channels
  67. Channel layout                           : C L R LFE Lb Rb Lss Rss
  68. Sampling rate                            : 48.0 kHz
  69. Frame rate                               : 93.750 FPS (512 SPF)
  70. Bit depth                                : 24 bits
  71. Compression mode                         : Lossless
  72. Stream size                              : 3.79 GiB (6%)
  73. Title                                    : DTS-HD MA 7.1
  74. Language                                 : English
  75. Default                                  : No
  76. Forced                                   : No
  77. Audio #3
  78. ID                                       : 4
  79. ID in the original source medium         : 4352 (0x1100)
  80. Format                                   : AC-3
  81. Format/Info                              : Audio Coding 3
  82. Commercial name                          : Dolby Digital
  83. Codec ID                                 : A_AC3
  84. Duration                                 : 2 h 9 min
  85. Bit rate mode                            : Constant
  86. Bit rate                                 : 640 kb/s
  87. Channel(s)                               : 6 channels
  88. Channel layout                           : L R C LFE Ls Rs
  89. Sampling rate                            : 48.0 kHz
  90. Frame rate                               : 31.250 FPS (1536 SPF)
  91. Compression mode                         : Lossy
  92. Stream size                              : 591 MiB (1%)
  93. Title                                    : DD 5.1
  94. Language                                 : English
  95. Service kind                             : Complete Main
  96. Default                                  : No
  97. Forced                                   : No
  98. Original source medium                   : Blu-ray
  99. Audio #4
  100. ID                                       : 5
  101. Format                                   : E-AC-3
  102. Format/Info                              : Enhanced AC-3
  103. Commercial name                          : Dolby Digital Plus
  104. Format profile                           : Blu-ray Disc
  105. Codec ID                                 : A_EAC3
  106. Duration                                 : 2 h 9 min
  107. Bit rate mode                            : Constant
  108. Bit rate                                 : 1 024 kb/s
  109. Channel(s)                               : 8 channels
  110. Channel layout                           : L R C LFE Ls Rs Lb Rb
  111. Sampling rate                            : 48.0 kHz
  112. Frame rate                               : 31.250 FPS (1536 SPF)
  113. Compression mode                         : Lossy
  114. Stream size                              : 946 MiB (2%)
  115. Title                                    : DDP 7.1
  116. Language                                 : English
  117. Service kind                             : Complete Main
  118. Default                                  : No
  119. Forced                                   : No
  120. Audio #5
  121. ID                                       : 6
  122. ID in the original source medium         : 4354 (0x1102)
  123. Format                                   : AC-3
  124. Format/Info                              : Audio Coding 3
  125. Commercial name                          : Dolby Digital
  126. Codec ID                                 : A_AC3
  127. Duration                                 : 2 h 9 min
  128. Bit rate mode                            : Constant
  129. Bit rate                                 : 320 kb/s
  130. Channel(s)                               : 2 channels
  131. Channel layout                           : L R
  132. Sampling rate                            : 48.0 kHz
  133. Frame rate                               : 31.250 FPS (1536 SPF)
  134. Compression mode                         : Lossy
  135. Stream size                              : 295 MiB (0%)
  136. Title                                    : DD 2.0
  137. Language                                 : English
  138. Service kind                             : Complete Main
  139. Default                                  : No
  140. Forced                                   : No
  141. Original source medium                   : Blu-ray
  142. Audio #6
  143. ID                                       : 7
  144. Format                                   : E-AC-3
  145. Format/Info                              : Enhanced AC-3
  146. Commercial name                          : Dolby Digital Plus
  147. Format profile                           : Blu-ray Disc
  148. Codec ID                                 : A_EAC3
  149. Duration                                 : 2 h 9 min
  150. Bit rate mode                            : Constant
  151. Bit rate                                 : 1 024 kb/s
  152. Channel(s)                               : 8 channels
  153. Channel layout                           : L R C LFE Ls Rs Lb Rb
  154. Sampling rate                            : 48.0 kHz
  155. Frame rate                               : 31.250 FPS (1536 SPF)
  156. Compression mode                         : Lossy
  157. Stream size                              : 946 MiB (2%)
  158. Title                                    : DDP 7.1
  159. Language                                 : French
  160. Service kind                             : Complete Main
  161. Default                                  : No
  162. Forced                                   : No
  163. Audio #7
  164. ID                                       : 8
  165. Format                                   : E-AC-3
  166. Format/Info                              : Enhanced AC-3
  167. Commercial name                          : Dolby Digital Plus
  168. Format profile                           : Blu-ray Disc
  169. Codec ID                                 : A_EAC3
  170. Duration                                 : 2 h 9 min
  171. Bit rate mode                            : Constant
  172. Bit rate                                 : 1 024 kb/s
  173. Channel(s)                               : 8 channels
  174. Channel layout                           : L R C LFE Ls Rs Lb Rb
  175. Sampling rate                            : 48.0 kHz
  176. Frame rate                               : 31.250 FPS (1536 SPF)
  177. Compression mode                         : Lossy
  178. Stream size                              : 946 MiB (2%)
  179. Title                                    : DDP 7.1
  180. Language                                 : Spanish
  181. Service kind                             : Complete Main
  182. Default                                  : No
  183. Forced                                   : No
  184. Audio #8
  185. ID                                       : 9
  186. Format                                   : E-AC-3
  187. Format/Info                              : Enhanced AC-3
  188. Commercial name                          : Dolby Digital Plus
  189. Format profile                           : Blu-ray Disc
  190. Codec ID                                 : A_EAC3
  191. Duration                                 : 2 h 9 min
  192. Bit rate mode                            : Constant
  193. Bit rate                                 : 1 024 kb/s
  194. Channel(s)                               : 8 channels
  195. Channel layout                           : L R C LFE Ls Rs Lb Rb
  196. Sampling rate                            : 48.0 kHz
  197. Frame rate                               : 31.250 FPS (1536 SPF)
  198. Compression mode                         : Lossy
  199. Stream size                              : 946 MiB (2%)
  200. Title                                    : DDP 7.1
  201. Language                                 : Japanese
  202. Service kind                             : Complete Main
  203. Default                                  : No
  204. Forced                                   : No
  205. Text #1
  206. ID                                       : 10
  207. Format                                   : UTF-8
  208. Codec ID                                 : S_TEXT/UTF8
  209. Codec ID/Info                            : UTF-8 Plain Text
  210. Duration                                 : 1 h 55 min
  211. Bit rate                                 : 47 b/s
  212. Frame rate                               : 0.205 FPS
  213. Count of elements                        : 1419
  214. Stream size                              : 39.7 KiB (0%)
  215. Language                                 : English
  216. Default                                  : Yes
  217. Forced                                   : No
  218. Text #2
  219. ID                                       : 11
  220. Format                                   : UTF-8
  221. Codec ID                                 : S_TEXT/UTF8
  222. Codec ID/Info                            : UTF-8 Plain Text
  223. Duration                                 : 2 h 7 min
  224. Bit rate                                 : 48 b/s
  225. Frame rate                               : 0.229 FPS
  226. Count of elements                        : 1756
  227. Stream size                              : 45.2 KiB (0%)
  228. Title                                    : SDH
  229. Language                                 : English
  230. Default                                  : No
  231. Forced                                   : No
  232. Text #3
  233. ID                                       : 12
  234. ID in the original source medium         : 4768 (0x12A0)
  235. Format                                   : PGS
  236. Muxing mode                              : zlib
  237. Codec ID                                 : S_HDMV/PGS
  238. Codec ID/Info                            : Picture based subtitle format used on BDs/HD-DVDs
  239. Duration                                 : 2 h 7 min
  240. Bit rate                                 : 32.8 kb/s
  241. Frame rate                               : 0.462 FPS
  242. Count of elements                        : 3544
  243. Stream size                              : 30.0 MiB (0%)
  244. Language                                 : English
  245. Default                                  : No
  246. Forced                                   : No
  247. Original source medium                   : Blu-ray
  248. Text #4
  249. ID                                       : 13
  250. ID in the original source medium         : 4769 (0x12A1)
  251. Format                                   : PGS
  252. Muxing mode                              : zlib
  253. Codec ID                                 : S_HDMV/PGS
  254. Codec ID/Info                            : Picture based subtitle format used on BDs/HD-DVDs
  255. Duration                                 : 1 h 59 min
  256. Bit rate                                 : 29.0 kb/s
  257. Frame rate                               : 0.382 FPS
  258. Count of elements                        : 2744
  259. Stream size                              : 24.8 MiB (0%)
  260. Language                                 : French
  261. Default                                  : No
  262. Forced                                   : No
  263. Original source medium                   : Blu-ray
  264. Text #5
  265. ID                                       : 14
  266. ID in the original source medium         : 4770 (0x12A2)
  267. Format                                   : PGS
  268. Muxing mode                              : zlib
  269. Codec ID                                 : S_HDMV/PGS
  270. Codec ID/Info                            : Picture based subtitle format used on BDs/HD-DVDs
  271. Duration                                 : 1 h 59 min
  272. Bit rate                                 : 28.5 kb/s
  273. Frame rate                               : 0.369 FPS
  274. Count of elements                        : 2638
  275. Stream size                              : 24.3 MiB (0%)
  276. Language                                 : Spanish
  277. Default                                  : No
  278. Forced                                   : No
  279. Original source medium                   : Blu-ray
  280. Text #6
  281. ID                                       : 15
  282. ID in the original source medium         : 4771 (0x12A3)
  283. Format                                   : PGS
  284. Muxing mode                              : zlib
  285. Codec ID                                 : S_HDMV/PGS
  286. Codec ID/Info                            : Picture based subtitle format used on BDs/HD-DVDs
  287. Duration                                 : 1 h 59 min
  288. Bit rate                                 : 16.8 kb/s
  289. Frame rate                               : 0.370 FPS
  290. Count of elements                        : 2646
  291. Stream size                              : 14.3 MiB (0%)
  292. Language                                 : Chinese
  293. Default                                  : No
  294. Forced                                   : No
  295. Original source medium                   : Blu-ray
  296. Text #7
  297. ID                                       : 16
  298. ID in the original source medium         : 4772 (0x12A4)
  299. Format                                   : PGS
  300. Muxing mode                              : zlib
  301. Codec ID                                 : S_HDMV/PGS
  302. Codec ID/Info                            : Picture based subtitle format used on BDs/HD-DVDs
  303. Duration                                 : 2 h 4 min
  304. Bit rate                                 : 17.8 kb/s
  305. Frame rate                               : 0.318 FPS
  306. Count of elements                        : 2372
  307. Stream size                              : 15.9 MiB (0%)
  308. Language                                 : Japanese
  309. Default                                  : No
  310. Forced                                   : No
  311. Original source medium                   : Blu-ray
  312. Text #8
  313. ID                                       : 17
  314. ID in the original source medium         : 4773 (0x12A5)
  315. Format                                   : PGS
  316. Muxing mode                              : zlib
  317. Codec ID                                 : S_HDMV/PGS
  318. Codec ID/Info                            : Picture based subtitle format used on BDs/HD-DVDs
  319. Duration                                 : 1 h 59 min
  320. Bit rate                                 : 19.4 kb/s
  321. Frame rate                               : 0.383 FPS
  322. Count of elements                        : 2738
  323. Stream size                              : 16.5 MiB (0%)
  324. Language                                 : Chinese
  325. Default                                  : No
  326. Forced                                   : No
  327. Original source medium                   : Blu-ray
  328. Text #9
  329. ID                                       : 18
  330. ID in the original source medium         : 4774 (0x12A6)
  331. Format                                   : PGS
  332. Muxing mode                              : zlib
  333. Codec ID                                 : S_HDMV/PGS
  334. Codec ID/Info                            : Picture based subtitle format used on BDs/HD-DVDs
  335. Duration                                 : 1 h 57 min
  336. Bit rate                                 : 983 b/s
  337. Frame rate                               : 0.013 FPS
  338. Count of elements                        : 92
  339. Stream size                              : 849 KiB (0%)
  340. Language                                 : French
  341. Default                                  : No
  342. Forced                                   : No
  343. Original source medium                   : Blu-ray
  344. Text #10
  345. ID                                       : 19
  346. ID in the original source medium         : 4775 (0x12A7)
  347. Format                                   : PGS
  348. Muxing mode                              : zlib
  349. Codec ID                                 : S_HDMV/PGS
  350. Codec ID/Info                            : Picture based subtitle format used on BDs/HD-DVDs
  351. Duration                                 : 1 h 2 min
  352. Bit rate                                 : 274 b/s
  353. Frame rate                               : 0.004 FPS
  354. Count of elements                        : 16
  355. Stream size                              : 126 KiB (0%)
  356. Language                                 : Spanish
  357. Default                                  : No
  358. Forced                                   : No
  359. Original source medium                   : Blu-ray
  360. Text #11
  361. ID                                       : 20
  362. ID in the original source medium         : 4776 (0x12A8)
  363. Format                                   : PGS
  364. Muxing mode                              : zlib
  365. Codec ID                                 : S_HDMV/PGS
  366. Codec ID/Info                            : Picture based subtitle format used on BDs/HD-DVDs
  367. Duration                                 : 7 min 55 s
  368. Bit rate                                 : 570 b/s
  369. Frame rate                               : 0.008 FPS
  370. Count of elements                        : 4
  371. Stream size                              : 33.1 KiB (0%)
  372. Language                                 : Japanese
  373. Default                                  : No
  374. Forced                                   : No
  375. Original source medium                   : Blu-ray
  376. Menu
  377. 00:00:00.000                             : en:Chapter 01
  378. 00:05:49.557                             : en:Chapter 02
  379. 00:08:34.263                             : en:Chapter 03
  380. 00:13:40.861                             : en:Chapter 04
  381. 00:16:29.196                             : en:Chapter 05
  382. 00:22:33.894                             : en:Chapter 06
  383. 00:25:19.309                             : en:Chapter 07
  384. 00:28:06.142                             : en:Chapter 08
  385. 00:31:41.816                             : en:Chapter 09
  386. 00:33:44.856                             : en:Chapter 10
  387. 00:37:02.094                             : en:Chapter 11
  388. 00:42:27.753                             : en:Chapter 12
  389. 00:49:09.112                             : en:Chapter 13
  390. 00:54:00.320                             : en:Chapter 14
  391. 00:57:19.436                             : en:Chapter 15
  392. 01:00:38.760                             : en:Chapter 16
  393. 01:08:29.980                             : en:Chapter 17
  394. 01:11:57.062                             : en:Chapter 18
  395. 01:16:50.981                             : en:Chapter 19
  396. 01:19:27.512                             : en:Chapter 20
  397. 01:25:04.849                             : en:Chapter 21
  398. 01:27:42.215                             : en:Chapter 22
  399. 01:31:43.831                             : en:Chapter 23
  400. 01:38:22.855                             : en:Chapter 24
  401. 01:42:36.817                             : en:Chapter 25
  402. 01:47:23.603                             : en:Chapter 26
  403. 01:52:58.730                             : en:Chapter 27
  404. 01:59:09.976                             : en:Chapter 28
复制代码











回复

使用道具 举报

蓝光币
310
发表于 2023-1-15 10:03:44 | 显示全部楼层

楼主太厉害了!楼主,电影应该很好看我觉得蓝光电影网真是个好地方!
回复 支持 反对

使用道具 举报

蓝光币
29
发表于 2023-1-18 13:22:40 | 显示全部楼层
谢谢楼主分享
回复 支持 反对

使用道具 举报

蓝光币
120
发表于 2023-1-28 13:27:17 | 显示全部楼层

这个帖子不回对不起自己!我想我是一天也不能离开蓝光电影网。
回复 支持 反对

使用道具 举报

懒得打字嘛,点击右侧快捷回复 【右侧内容,后台自定义】
您需要登录后才可以回帖 登录 | 立即加入

本版积分规则

Archiver|小黑屋| 蓝光电影网 |网站地图

Copyright © 2021 Comsenz Inc. Powered by 蓝光电影网

蓝光电影网

本站内容由用户自主分享和转载自互联网,转载目的在于传递更多信息,并不代表本网赞同其观点和对其真实性负责。

如有侵权、违反国家法律政策行为,请联系我们,我们会第一时间及时清除和处理!

举报反馈邮箱:[email protected]

快速回复 返回顶部 返回列表