找回密码

蓝光电影网

查看: 28|回复: 0

[2160p] 科学怪人.Mary.Shelleys.Frankenstein.1994.2160p.UHD.BluRay.x265.10bit.HDR.DDP5.1-RARBG 7.45GB

[复制链接]
蓝光币
1080
发表于 2023-1-11 22:03:34 | 显示全部楼层 |阅读模式


◎标  题 科学怪人
◎译  名 玛丽·雪莱的弗兰肯斯坦 / 玛丽·雪莱之科学怪人 / 科学怪人之再生情狂 / 弗兰肯斯坦 / Frankenstein
◎片  名 Mary Shelley's Frankenstein
◎年  代 1994
◎产  地 美国 / 日本 / 法国
◎类  别 剧情 / 恋爱 / 科幻 / 可骇
◎语  言 英语
◎上映日期 1994-11-04(美国)
◎IMDb评分 6.3/10 (56361人评价)
◎IMDb链接 https://www.imdb.com/title/tt0109836/
◎豆瓣评分 7.7/10 (13166人评价)
◎豆瓣链接 https://movie.douban.com/subject/1293778/
◎片  长 123分钟
◎导  演 肯尼思·布拉纳 Kenneth Branagh
◎编  剧 玛丽·雪莱 Mary Shelley
       斯特凡密斯 Steph Lady
       弗兰克·德拉邦特 Frank Darabont
◎演  员 罗伯特·德尼罗 Robert De Niro
       肯尼思·布拉纳 Kenneth Branagh
       汤姆·休斯克 Tom Hulce
       海伦娜·伯翰·卡特 Helena Bonham Carter
       艾丹·奎因 Aidan Quinn
       伊安·霍姆 Ian Holm
       理查德·布赖尔斯 Richard Briers
       约翰·克里斯 John Cleese
       罗伯特·哈迪 Robert Hardy
       切瑞·朗吉 Cherie Lunghi
       西莉亚·伊姆里 Celia Imrie
       特里文·麦克道尔 Trevyn McDowell
       阿尔弗雷德·贝尔 Alfred Bell
       马克·哈德菲尔德 Mark Hadfield
       乔治·阿斯普雷 George Asprey
       斯图尔特·哈泽尔丁 Stuart Hazeldine
       乔安娜·罗斯 Joanna Roth
       杜迪·埃普顿 Dudi Appleton
       理查德·克里弗特 Richard Clifford
       休·博纳维尔 Hugh Bonneville
       苏珊·菲尔德 Susan Field
◎简  介
    岌岌可危的维克多.弗兰肯斯坦(肯尼思·布拉纳 Kenneth Branagh 饰)被北极探险船救起,他告诉了船主沃尔顿(艾丹·奎因 Aidan Quinn 饰)一个使人难以置信的故事。年轻的维克多与怙恃收养的妹妹伊丽莎白(海伦娜·邦汉·卡特 Helena Bonham Carter 饰)生活在一路,一次他盗取了一本使死人新生实验的医学笔记,并用偷来的尸身缔造出了一个全新的生命“缔造物”(罗伯特·德尼罗 Robert De Niro 饰)。可是“缔造物”并不愿意这样生活,他逃走了诡计起头新生,可是他失利了,履历了各种羞辱后他恨透了维克多。在维克多预备与伊丽莎白成婚时,“缔造物”返来了,他残暴的杀死了新娘。欣喜若狂的维克多故技重施,用伊丽莎白的尸身缔造了一个再生人,“缔造物”以为再生的新娘与自己是一样的,诡计占有她,再生新娘以死相抗最初引火自焚。落空一切的维克多抛下一切追逐“缔造物”,一向来到北极圈……
  1. Video
  2. ID                                       : 1
  3. Format                                   : HEVC
  4. Format/Info                              : High Efficiency Video Coding
  5. Format profile                           : Main [email protected]@Main
  6. HDR format                               : SMPTE ST 2086, HDR10 compatible
  7. Codec ID                                 : V_MPEGH/ISO/HEVC
  8. Duration                                 : 2 h 3 min
  9. Bit rate                                 : 8 017 kb/s
  10. Width                                    : 3 840 pixels
  11. Height                                   : 2 076 pixels
  12. Display aspect ratio                     : 1.85:1
  13. Frame rate mode                          : Constant
  14. Frame rate                               : 23.976 (24000/1001) FPS
  15. Color space                              : YUV
  16. Chroma subsampling                       : 4:2:0
  17. Bit depth                                : 10 bits
  18. Bits/(Pixel*Frame)                       : 0.042
  19. Stream size                              : 6.90 GiB (93%)
  20. Writing library                          : x265 3.5+rarbg-HDR-38-20255e6:[Linux][clang 16.0.0][64 bit] 10bit
  21. Encoding settings                        : cpuid=1111039 / frame-threads=6 / wpp / no-pmode / no-pme / no-psnr / no-ssim / log-level=2 / input-csp=1 / input-res=3840x2076 / interlace=0 / total-frames=0 / level-idc=51 / high-tier=1 / uhd-bd=0 / ref=4 / no-allow-non-conformance / repeat-headers / annexb / aud / no-eob / no-eos / no-hrd / info / hash=0 / no-temporal-layers / no-open-gop / min-keyint=1 / keyint=24 / gop-lookahead=0 / bframes=4 / b-adapt=2 / b-pyramid / bframe-bias=0 / rc-lookahead=25 / lookahead-slices=4 / scenecut=40 / no-hist-scenecut / radl=0 / no-splice / no-intra-refresh / ctu=64 / min-cu-size=8 / rect / no-amp / max-tu-size=32 / tu-inter-depth=1 / tu-intra-depth=1 / limit-tu=0 / rdoq-level=2 / dynamic-rd=0.00 / no-ssim-rd / signhide / no-tskip / nr-intra=0 / nr-inter=0 / no-constrained-intra / strong-intra-smoothing / max-merge=3 / limit-refs=3 / no-limit-modes / me=3 / subme=3 / merange=57 / temporal-mvp / no-frame-dup / no-hme / weightp / no-weightb / no-analyze-src-pics / deblock=0:0 / no-sao / no-sao-non-deblock / rd=4 / selective-sao=0 / no-early-skip / rskip / no-fast-intra / no-tskip-fast / no-cu-lossless / no-b-intra / no-splitrd-skip / rdpenalty=0 / psy-rd=2.00 / psy-rdoq=1.00 / no-rd-refine / no-lossless / cbqpoffs=0 / crqpoffs=0 / rc=abr / bitrate=8000 / qcomp=0.60 / qpstep=4 / stats-write=0 / stats-read=2 / cplxblur=20.0 / qblur=0.5 / ipratio=1.40 / pbratio=1.30 / aq-mode=1 / aq-strength=1.00 / cutree / zone-count=0 / no-strict-cbr / qg-size=32 / no-rc-grain / qpmax=69 / qpmin=0 / no-const-vbv / sar=1 / overscan=0 / videoformat=5 / range=0 / colorprim=9 / transfer=16 / colormatrix=9 / chromaloc=0 / display-window=0 / master-display=G(8500,39850)B(6550,2300)R(35400,14600)WP(15635,16450)L(10000000,1) / cll=531,317 / min-luma=0 / max-luma=1023 / log2-max-poc-lsb=8 / vui-timing-info / vui-hrd-info / slices=1 / no-opt-qp-pps / no-opt-ref-list-length-pps / no-multi-pass-opt-rps / scenecut-bias=0.05 / hist-threshold=0.03 / no-opt-cu-delta-qp / no-aq-motion / hdr10 / hdr10-opt / no-dhdr10-opt / no-idr-recovery-sei / analysis-reuse-level=0 / analysis-save-reuse-level=0 / analysis-load-reuse-level=0 / scale-factor=0 / refine-intra=0 / refine-inter=0 / refine-mv=1 / refine-ctu-distortion=0 / no-limit-sao / ctu-info=0 / no-lowpass-dct / refine-analysis-type=0 / copy-pic=1 / max-ausize-factor=1.0 / no-dynamic-refine / no-single-sei / no-hevc-aq / no-svt / no-field / qp-adaptation-range=1.00 / scenecut-aware-qp=0conformance-window-offsets / right=0 / bottom=0 / decoder-max-rate=0 / no-vbv-live-multi-pass
  22. Default                                  : Yes
  23. Forced                                   : No
  24. Color range                              : Limited
  25. Color primaries                          : BT.2020
  26. Transfer characteristics                 : PQ
  27. Matrix coefficients                      : BT.2020 non-constant
  28. Mastering display color primaries        : BT.2020
  29. Mastering display luminance              : min: 0.0001 cd/m2, max: 1000 cd/m2
  30. Maximum Content Light Level              : 531 cd/m2
  31. Maximum Frame-Average Light Level        : 317 cd/m2
  32. Audio
  33. ID                                       : 2
  34. Format                                   : E-AC-3
  35. Format/Info                              : Enhanced AC-3
  36. Commercial name                          : Dolby Digital Plus
  37. Codec ID                                 : A_EAC3
  38. Duration                                 : 2 h 3 min
  39. Bit rate mode                            : Constant
  40. Bit rate                                 : 640 kb/s
  41. Channel(s)                               : 6 channels
  42. Channel layout                           : L R C LFE Ls Rs
  43. Sampling rate                            : 48.0 kHz
  44. Frame rate                               : 31.250 FPS (1536 SPF)
  45. Compression mode                         : Lossy
  46. Stream size                              : 564 MiB (7%)
  47. Title                                    : English DDP 5.1
  48. Language                                 : English
  49. Service kind                             : Complete Main
  50. Default                                  : Yes
  51. Forced                                   : No
  52. Text #1
  53. ID                                       : 3
  54. Format                                   : UTF-8
  55. Codec ID                                 : S_TEXT/UTF8
  56. Codec ID/Info                            : UTF-8 Plain Text
  57. Duration                                 : 1 h 57 min
  58. Bit rate                                 : 39 b/s
  59. Frame rate                               : 0.145 FPS
  60. Count of elements                        : 1023
  61. Stream size                              : 34.2 KiB (0%)
  62. Title                                    : English SRT
  63. Language                                 : English
  64. Default                                  : Yes
  65. Forced                                   : No
  66. Text #2
  67. ID                                       : 4
  68. Format                                   : UTF-8
  69. Codec ID                                 : S_TEXT/UTF8
  70. Codec ID/Info                            : UTF-8 Plain Text
  71. Duration                                 : 1 h 57 min
  72. Bit rate                                 : 42 b/s
  73. Frame rate                               : 0.158 FPS
  74. Count of elements                        : 1113
  75. Stream size                              : 36.2 KiB (0%)
  76. Title                                    : English SDH SRT
  77. Language                                 : English
  78. Default                                  : No
  79. Forced                                   : No
  80. Menu
  81. 00:00:00.000                             : en:Chapter 01
  82. 00:07:36.747                             : en:Chapter 02
  83. 00:20:23.055                             : en:Chapter 03
  84. 00:27:33.068                             : en:Chapter 04
  85. 00:34:44.916                             : en:Chapter 05
  86. 00:39:50.137                             : en:Chapter 06
  87. 00:58:07.609                             : en:Chapter 07
  88. 01:04:54.473                             : en:Chapter 08
  89. 01:22:08.840                             : en:Chapter 09
  90. 01:29:38.998                             : en:Chapter 10
  91. 01:50:54.648                             : en:Chapter 11
  92. 01:58:07.205                             : en:Chapter 12
复制代码











回复

使用道具 举报

懒得打字嘛,点击右侧快捷回复 【右侧内容,后台自定义】
您需要登录后才可以回帖 登录 | 立即加入

本版积分规则

Archiver|小黑屋| 蓝光电影网 |网站地图

Copyright © 2021 Comsenz Inc. Powered by 蓝光电影网

蓝光电影网

本站内容由用户自主分享和转载自互联网,转载目的在于传递更多信息,并不代表本网赞同其观点和对其真实性负责。

如有侵权、违反国家法律政策行为,请联系我们,我们会第一时间及时清除和处理!

举报反馈邮箱:[email protected]

快速回复 返回顶部 返回列表