找回密码

蓝光电影网

查看: 52|回复: 0

[2160p] 终极天将.The.Adventures.of.Baron.Munchausen.1988.2160p.UHD.BluRay.x265.10bit.HDR.DTS-HD.MA.5.1-RARBG 10.50GB

[复制链接]
蓝光币
1084
发表于 2023-1-11 22:03:44 | 显示全部楼层 |阅读模式


◎标  题 终极天将
◎译  名 吹嘘大王历险记 / 通天神将 / 巴伦·门乔生历险记 / 蒙乔森男爵历险记
◎片  名 The Adventures of Baron Munchausen
◎年  代 1988
◎产  地 英国 / 西德
◎类  别 笑剧 / 奇异 / 冒险
◎语  言 英语
◎上映日期 1988-12-08(西德)
◎IMDb评分 7.1/10 (54130人评价)
◎IMDb链接 https://www.imdb.com/title/tt0096764/
◎豆瓣评分 7.9/10 (3526人评价)
◎豆瓣链接 https://movie.douban.com/subject/1301604/
◎片  长 126分钟
◎导  演 特瑞·吉列姆 Terry Gilliam
◎编  剧 查尔斯·麦肯恩 Charles McKeown
       特瑞·吉列姆 Terry Gilliam
       戈特弗里德·奥古斯特·比尔格 Gottfried August Bürger
◎演  员 约翰·内威尔 John Neville
       艾瑞克·爱都 Eric Idle
       萨拉·波莉 Sarah Polley
       奥列佛·里德 Oliver Reed
       查尔斯·麦肯恩 Charles McKeown
       杰克·普韦思 Jack Purvis
       瓦伦蒂娜·格特斯 Valentina Cortese
       乔纳森·普雷斯 Jonathan Pryce
       比尔·帕特森 Bill Paterson
       彼得·杰弗里 Peter Jeffrey
       乌玛·瑟曼 Uma Thurman
       艾莉森·斯戴曼 Alison Steadman
       雷·库珀 Ray Cooper
       Don Henderson Don Henderson
       罗宾·威廉姆斯 Robin Williams
       斯汀 Sting
       José Lifante José Lifante
       基兰·沙阿 Kiran Shah
       特瑞·吉列姆 Terry Gilliam
       Balbino Lacosta Balbino Lacosta
       Thomas Schühly Thomas Schühly
       雷·库珀 Ray Cooper
       大卫·汤布林 David Tomblin
       迈克尔·凯曼 Michael Kamen
       艾瑞克·爱都 Eric Idle
       朱塞佩·罗通诺 Giuseppe Rotunno
       玛格莉·辛姆金 Margery Simkin
       艾琳·兰珀 Irene Lamb
       娜扎雷诺皮亚纳 Nazzareno Piana
       弗朗西斯卡·罗·夏沃 Francesca Lo Schiavo
       丹提·费瑞提 Dante Ferretti
       玛丽亚-特雷莎·巴巴索 Maria-Teresa Barbasso
       Massimo Razzi Massimo Razzi
       加布里埃尔·佩斯卡西 Gabriella Pescucci
       法布里齐奥·斯福尔扎 Fabrizio Sforza
       恩里科·雅科波尼 Enrico Jacoponi
       Pam Meager Pam Meager
       阿尔弗雷多·蒂伯里 Alfredo Tiberi
       Alicia Regueiro Alicia Regueiro
       玛吉·韦斯顿 Maggie Weston
       Gino Tamagnini Gino Tamagnini
       Javier Balaguer Javier Balaguer
       曼努埃尔·萨尔索 Manuel Zarzo
       米歇尔·索伊 Michele Soavi
       José Luis Escolar José Luis Escolar
       李·克利里 Lee Cleary
       Michael Lamont Michael Lamont
       Martin Gant Martin Gant
       Stanley W. Sayer Stanley W. Sayer
       Peter Tyler Peter Tyler
       Neil Lamont Neil Lamont
       Brian Cole Brian Cole
       西蒙·拉蒙 Simon Lamont
       肯特·休斯顿 Kent Houston
       Alec Knox Alec Knox
       Jamie Courtier Jamie Courtier
       罗杰·普拉特 Roger Pratt
◎简  介
  某年,土耳其雄师压境,被围困的英国小城内,亨利剧团正在搬演吹嘘大王拜伦·慕乔森的故事,岂料戏的中途慕乔森(John Neville 饰)真身参加,他宣称此次战争完全由自己和土耳其苏丹的一个赌局引发,凭仗四名本事高强的仆从,慕乔森囊括土耳其皇室宝库,苏丹是以开战。话音未落,土耳其的炮火摧毁了戏院,慕乔森带动大众用衣裙制成热气球,带上剧团主之女萨莉(Sarah Polley 饰),踏上追求四名仆从的历险。二人到达月球,从月球之王手中救出飞毛腿,又在维纳斯(Uma Thurman 饰)的支援下拉走大力士,最初在巨鱼腹中会合神枪手与顺风耳。五人来到疆场,慕乔森引领仆从们克服光阴的腐蚀重新抖擞神力,大胜土耳其人……慕乔森的故事讲完了,戏院里的观众在他的率领下涌出城外,发现成功真的奇迹般来临。
  1. Video
  2. ID                                       : 1
  3. Format                                   : HEVC
  4. Format/Info                              : High Efficiency Video Coding
  5. Format profile                           : Main [email protected]@Main
  6. HDR format                               : SMPTE ST 2086, HDR10 compatible
  7. Codec ID                                 : V_MPEGH/ISO/HEVC
  8. Duration                                 : 2 h 6 min
  9. Bit rate                                 : 8 021 kb/s
  10. Width                                    : 3 840 pixels
  11. Height                                   : 2 076 pixels
  12. Display aspect ratio                     : 1.85:1
  13. Frame rate mode                          : Constant
  14. Frame rate                               : 23.976 (24000/1001) FPS
  15. Color space                              : YUV
  16. Chroma subsampling                       : 4:2:0
  17. Bit depth                                : 10 bits
  18. Bits/(Pixel*Frame)                       : 0.042
  19. Stream size                              : 7.09 GiB (67%)
  20. Writing library                          : x265 3.5+rarbg-HDR-38-20255e6:[Linux][clang 16.0.0][64 bit] 10bit
  21. Encoding settings                        : cpuid=1111039 / frame-threads=6 / wpp / no-pmode / no-pme / no-psnr / no-ssim / log-level=2 / input-csp=1 / input-res=3840x2076 / interlace=0 / total-frames=0 / level-idc=51 / high-tier=1 / uhd-bd=0 / ref=4 / no-allow-non-conformance / repeat-headers / annexb / aud / no-eob / no-eos / no-hrd / info / hash=0 / no-temporal-layers / no-open-gop / min-keyint=1 / keyint=24 / gop-lookahead=0 / bframes=4 / b-adapt=2 / b-pyramid / bframe-bias=0 / rc-lookahead=25 / lookahead-slices=4 / scenecut=40 / no-hist-scenecut / radl=0 / no-splice / no-intra-refresh / ctu=64 / min-cu-size=8 / rect / no-amp / max-tu-size=32 / tu-inter-depth=1 / tu-intra-depth=1 / limit-tu=0 / rdoq-level=2 / dynamic-rd=0.00 / no-ssim-rd / signhide / no-tskip / nr-intra=0 / nr-inter=0 / no-constrained-intra / strong-intra-smoothing / max-merge=3 / limit-refs=3 / no-limit-modes / me=3 / subme=3 / merange=57 / temporal-mvp / no-frame-dup / no-hme / weightp / no-weightb / no-analyze-src-pics / deblock=0:0 / no-sao / no-sao-non-deblock / rd=4 / selective-sao=0 / no-early-skip / rskip / no-fast-intra / no-tskip-fast / no-cu-lossless / no-b-intra / no-splitrd-skip / rdpenalty=0 / psy-rd=2.00 / psy-rdoq=1.00 / no-rd-refine / no-lossless / cbqpoffs=0 / crqpoffs=0 / rc=abr / bitrate=8000 / qcomp=0.60 / qpstep=4 / stats-write=0 / stats-read=2 / cplxblur=20.0 / qblur=0.5 / ipratio=1.40 / pbratio=1.30 / aq-mode=1 / aq-strength=1.00 / cutree / zone-count=0 / no-strict-cbr / qg-size=32 / no-rc-grain / qpmax=69 / qpmin=0 / no-const-vbv / sar=1 / overscan=0 / videoformat=5 / range=0 / colorprim=9 / transfer=16 / colormatrix=9 / chromaloc=0 / display-window=0 / master-display=G(13250,34500)B(7500,3000)R(34000,16000)WP(15635,16450)L(20000000,1) / cll=1000,746 / min-luma=0 / max-luma=1023 / log2-max-poc-lsb=8 / vui-timing-info / vui-hrd-info / slices=1 / no-opt-qp-pps / no-opt-ref-list-length-pps / no-multi-pass-opt-rps / scenecut-bias=0.05 / hist-threshold=0.03 / no-opt-cu-delta-qp / no-aq-motion / hdr10 / hdr10-opt / no-dhdr10-opt / no-idr-recovery-sei / analysis-reuse-level=0 / analysis-save-reuse-level=0 / analysis-load-reuse-level=0 / scale-factor=0 / refine-intra=0 / refine-inter=0 / refine-mv=1 / refine-ctu-distortion=0 / no-limit-sao / ctu-info=0 / no-lowpass-dct / refine-analysis-type=0 / copy-pic=1 / max-ausize-factor=1.0 / no-dynamic-refine / no-single-sei / no-hevc-aq / no-svt / no-field / qp-adaptation-range=1.00 / scenecut-aware-qp=0conformance-window-offsets / right=0 / bottom=0 / decoder-max-rate=0 / no-vbv-live-multi-pass
  22. Default                                  : Yes
  23. Forced                                   : No
  24. Color range                              : Limited
  25. Color primaries                          : BT.2020
  26. Transfer characteristics                 : PQ
  27. Matrix coefficients                      : BT.2020 non-constant
  28. Mastering display color primaries        : Display P3
  29. Mastering display luminance              : min: 0.0001 cd/m2, max: 2000 cd/m2
  30. Maximum Content Light Level              : 1000 cd/m2
  31. Maximum Frame-Average Light Level        : 746 cd/m2
  32. Audio #1
  33. ID                                       : 2
  34. Format                                   : DTS XLL
  35. Format/Info                              : Digital Theater Systems
  36. Commercial name                          : DTS-HD Master Audio
  37. Codec ID                                 : A_DTS
  38. Duration                                 : 2 h 6 min
  39. Bit rate mode                            : Variable
  40. Bit rate                                 : 3 480 kb/s
  41. Channel(s)                               : 6 channels
  42. Channel layout                           : C L R Ls Rs LFE
  43. Sampling rate                            : 48.0 kHz
  44. Frame rate                               : 93.750 FPS (512 SPF)
  45. Bit depth                                : 24 bits
  46. Compression mode                         : Lossless
  47. Stream size                              : 3.07 GiB (29%)
  48. Title                                    : English DTS-HD MA 5.1
  49. Language                                 : English
  50. Default                                  : Yes
  51. Forced                                   : No
  52. Audio #2
  53. ID                                       : 3
  54. Format                                   : AC-3
  55. Format/Info                              : Audio Coding 3
  56. Commercial name                          : Dolby Digital
  57. Codec ID                                 : A_AC3
  58. Duration                                 : 2 h 6 min
  59. Bit rate mode                            : Constant
  60. Bit rate                                 : 384 kb/s
  61. Channel(s)                               : 6 channels
  62. Channel layout                           : L R C LFE Ls Rs
  63. Sampling rate                            : 48.0 kHz
  64. Frame rate                               : 31.250 FPS (1536 SPF)
  65. Compression mode                         : Lossy
  66. Stream size                              : 347 MiB (3%)
  67. Title                                    : English DD 5.1
  68. Language                                 : English
  69. Service kind                             : Complete Main
  70. Default                                  : No
  71. Forced                                   : No
  72. Text #1
  73. ID                                       : 4
  74. Format                                   : UTF-8
  75. Codec ID                                 : S_TEXT/UTF8
  76. Codec ID/Info                            : UTF-8 Plain Text
  77. Duration                                 : 2 h 0 min
  78. Bit rate                                 : 44 b/s
  79. Frame rate                               : 0.191 FPS
  80. Count of elements                        : 1386
  81. Stream size                              : 39.1 KiB (0%)
  82. Title                                    : English SRT
  83. Language                                 : English
  84. Default                                  : Yes
  85. Forced                                   : No
  86. Text #2
  87. ID                                       : 5
  88. Format                                   : UTF-8
  89. Codec ID                                 : S_TEXT/UTF8
  90. Codec ID/Info                            : UTF-8 Plain Text
  91. Duration                                 : 2 h 1 min
  92. Bit rate                                 : 55 b/s
  93. Frame rate                               : 0.245 FPS
  94. Count of elements                        : 1784
  95. Stream size                              : 48.9 KiB (0%)
  96. Title                                    : English SDH SRT
  97. Language                                 : English
  98. Default                                  : No
  99. Forced                                   : No
  100. Menu
  101. 00:00:00.000                             : en:Chapter 01
  102. 00:08:28.549                             : en:Chapter 02
  103. 00:13:36.649                             : en:Chapter 03
  104. 00:29:02.699                             : en:Chapter 04
  105. 00:36:03.077                             : en:Chapter 05
  106. 00:46:17.775                             : en:Chapter 06
  107. 00:51:06.646                             : en:Chapter 07
  108. 00:58:57.116                             : en:Chapter 08
  109. 01:08:57.633                             : en:Chapter 09
  110. 01:17:43.408                             : en:Chapter 10
  111. 01:26:16.379                             : en:Chapter 11
  112. 01:36:30.534                             : en:Chapter 12
  113. 01:44:32.975                             : en:Chapter 13
  114. 01:52:11.015                             : en:Chapter 14
  115. 02:01:33.452                             : en:Chapter 15
复制代码











回复

使用道具 举报

懒得打字嘛,点击右侧快捷回复 【右侧内容,后台自定义】
您需要登录后才可以回帖 登录 | 立即加入

本版积分规则

Archiver|小黑屋| 蓝光电影网 |网站地图

Copyright © 2021 Comsenz Inc. Powered by 蓝光电影网

蓝光电影网

本站内容由用户自主分享和转载自互联网,转载目的在于传递更多信息,并不代表本网赞同其观点和对其真实性负责。

如有侵权、违反国家法律政策行为,请联系我们,我们会第一时间及时清除和处理!

举报反馈邮箱:[email protected]

快速回复 返回顶部 返回列表