找回密码

蓝光电影网

查看: 76|回复: 0

[2160p] 热情如火.Some.Like.It.Hot.1959.2160p.UHD.BluRay.x265.10bit.HDR.DTS-HD.MA.5.1-RARBG 8.84GB

[复制链接]
蓝光币
1084
发表于 2023-1-11 22:03:45 | 显示全部楼层 |阅读模式


◎标  题 热情如火
◎译  名 热情似火 / 如此热辣
◎片  名 Some Like It Hot
◎年  代 1959
◎产  地 美国
◎类  别 笑剧
◎语  言 英语
◎上映日期 1959-03-29
◎IMDb评分 8.2/10 (268917人评价)
◎IMDb链接 https://www.imdb.com/title/tt0053291/
◎豆瓣评分 8.9/10 (60628人评价)
◎豆瓣链接 https://movie.douban.com/subject/1292574/
◎片  长 120 分钟
◎导  演 比利·怀尔德 Billy Wilder
◎编  剧 比利·怀尔德 Billy Wilder
       I·A·L·戴蒙德 I.A.L. Diamond
◎演  员 玛丽莲·梦露 Marilyn Monroe
       托尼·柯蒂斯 Tony Curtis
       杰克·莱蒙 Jack Lemmon
       乔治·拉夫特 George Raft
       帕特·奥布莱恩 Pat O'Brien
       乔·E·布朗 Joe E. Brown
       内赫米亚·佩尔索夫 Nehemiah Persoff
       琼·肖丽 Joan Shawlee
       乔治·E·斯通 George E. Stone
       戴夫·巴里 Dave Barry
       迈克·马祖尔凯 Mike Mazurki
       哈里·威尔逊 Harry Wilson
       贝弗利·威尔斯 Beverly Wills
       芭芭拉·德鲁 Barbara Drew
       小爱德华·G·罗宾逊 Edward G. Robinson Jr.
       查尔斯·朗 Charles Lang
       奥里-凯利 Orry-Kelly
       约翰·威廉姆斯 John Williams
◎简  介
  1930年月,动乱的芝加哥经常被强盗团体骚扰。乔(托尼•柯蒂斯)和杰利(杰克•莱蒙)本是乐团成员,两人因偶然目击伏莽史巴克的手下在车库内射杀告发者而被穷追不舍。穷途末路之下,他们男扮女装加入一女性乐团,并随该团来到迈阿密。                                    
                                该团中有位名叫秀珈(玛丽莲•梦露)的异常美丽性感女郎,乔晓得她一心想钓有钱人时,便化身石油王的令郎诡计获得她的芳心;另一面,杰利也对秀珈情之所钟,可是他却获得一位不知他是男儿身的富翁的不竭纠缠,笑话迭生。未几,乔和杰利又遇史巴克一伙,只得再次流亡,排场加倍逗笑。
  1. Video
  2. ID                                       : 1
  3. Format                                   : HEVC
  4. Format/Info                              : High Efficiency Video Coding
  5. Format profile                           : Main [email protected]@Main
  6. HDR format                               : SMPTE ST 2086, HDR10 compatible
  7. Codec ID                                 : V_MPEGH/ISO/HEVC
  8. Duration                                 : 2 h 1 min
  9. Bit rate                                 : 8 022 kb/s
  10. Width                                    : 3 840 pixels
  11. Height                                   : 2 076 pixels
  12. Display aspect ratio                     : 1.85:1
  13. Frame rate mode                          : Constant
  14. Frame rate                               : 23.976 (24000/1001) FPS
  15. Color space                              : YUV
  16. Chroma subsampling                       : 4:2:0
  17. Bit depth                                : 10 bits
  18. Bits/(Pixel*Frame)                       : 0.042
  19. Stream size                              : 6.81 GiB (77%)
  20. Writing library                          : x265 3.5+rarbg-HDR-38-20255e6:[Linux][clang 16.0.0][64 bit] 10bit
  21. Encoding settings                        : cpuid=1111039 / frame-threads=6 / wpp / no-pmode / no-pme / no-psnr / no-ssim / log-level=2 / input-csp=1 / input-res=3840x2076 / interlace=0 / total-frames=0 / level-idc=51 / high-tier=1 / uhd-bd=0 / ref=4 / no-allow-non-conformance / repeat-headers / annexb / aud / no-eob / no-eos / no-hrd / info / hash=0 / no-temporal-layers / no-open-gop / min-keyint=1 / keyint=24 / gop-lookahead=0 / bframes=4 / b-adapt=2 / b-pyramid / bframe-bias=0 / rc-lookahead=25 / lookahead-slices=4 / scenecut=40 / no-hist-scenecut / radl=0 / no-splice / no-intra-refresh / ctu=64 / min-cu-size=8 / rect / no-amp / max-tu-size=32 / tu-inter-depth=1 / tu-intra-depth=1 / limit-tu=0 / rdoq-level=2 / dynamic-rd=0.00 / no-ssim-rd / signhide / no-tskip / nr-intra=0 / nr-inter=0 / no-constrained-intra / strong-intra-smoothing / max-merge=3 / limit-refs=3 / no-limit-modes / me=3 / subme=3 / merange=57 / temporal-mvp / no-frame-dup / no-hme / weightp / no-weightb / no-analyze-src-pics / deblock=0:0 / no-sao / no-sao-non-deblock / rd=4 / selective-sao=0 / no-early-skip / rskip / no-fast-intra / no-tskip-fast / no-cu-lossless / no-b-intra / no-splitrd-skip / rdpenalty=0 / psy-rd=2.00 / psy-rdoq=1.00 / no-rd-refine / no-lossless / cbqpoffs=0 / crqpoffs=0 / rc=abr / bitrate=8000 / qcomp=0.60 / qpstep=4 / stats-write=0 / stats-read=2 / cplxblur=20.0 / qblur=0.5 / ipratio=1.40 / pbratio=1.30 / aq-mode=1 / aq-strength=1.00 / cutree / zone-count=0 / no-strict-cbr / qg-size=32 / no-rc-grain / qpmax=69 / qpmin=0 / no-const-vbv / sar=1 / overscan=0 / videoformat=5 / range=0 / colorprim=9 / transfer=16 / colormatrix=9 / chromaloc=0 / display-window=0 / master-display=G(13250,34500)B(7500,3000)R(34000,16000)WP(15635,16450)L(40000000,50) / cll=1995,150 / min-luma=0 / max-luma=1023 / log2-max-poc-lsb=8 / vui-timing-info / vui-hrd-info / slices=1 / no-opt-qp-pps / no-opt-ref-list-length-pps / no-multi-pass-opt-rps / scenecut-bias=0.05 / hist-threshold=0.03 / no-opt-cu-delta-qp / no-aq-motion / hdr10 / hdr10-opt / no-dhdr10-opt / no-idr-recovery-sei / analysis-reuse-level=0 / analysis-save-reuse-level=0 / analysis-load-reuse-level=0 / scale-factor=0 / refine-intra=0 / refine-inter=0 / refine-mv=1 / refine-ctu-distortion=0 / no-limit-sao / ctu-info=0 / no-lowpass-dct / refine-analysis-type=0 / copy-pic=1 / max-ausize-factor=1.0 / no-dynamic-refine / no-single-sei / no-hevc-aq / no-svt / no-field / qp-adaptation-range=1.00 / scenecut-aware-qp=0conformance-window-offsets / right=0 / bottom=0 / decoder-max-rate=0 / no-vbv-live-multi-pass
  22. Default                                  : Yes
  23. Forced                                   : No
  24. Color range                              : Limited
  25. Color primaries                          : BT.2020
  26. Transfer characteristics                 : PQ
  27. Matrix coefficients                      : BT.2020 non-constant
  28. Mastering display color primaries        : Display P3
  29. Mastering display luminance              : min: 0.0050 cd/m2, max: 4000 cd/m2
  30. Maximum Content Light Level              : 1995 cd/m2
  31. Maximum Frame-Average Light Level        : 150 cd/m2
  32. Audio #1
  33. ID                                       : 2
  34. Format                                   : DTS XLL
  35. Format/Info                              : Digital Theater Systems
  36. Commercial name                          : DTS-HD Master Audio
  37. Codec ID                                 : A_DTS
  38. Duration                                 : 2 h 1 min
  39. Bit rate mode                            : Variable
  40. Bit rate                                 : 1 997 kb/s
  41. Channel(s)                               : 6 channels
  42. Channel layout                           : C L R Ls Rs LFE
  43. Sampling rate                            : 48.0 kHz
  44. Frame rate                               : 93.750 FPS (512 SPF)
  45. Bit depth                                : 24 bits
  46. Compression mode                         : Lossless
  47. Stream size                              : 1.70 GiB (19%)
  48. Title                                    : English DTS-HD MA 5.1
  49. Language                                 : English
  50. Default                                  : Yes
  51. Forced                                   : No
  52. Audio #2
  53. ID                                       : 3
  54. Format                                   : AC-3
  55. Format/Info                              : Audio Coding 3
  56. Commercial name                          : Dolby Digital
  57. Codec ID                                 : A_AC3
  58. Duration                                 : 2 h 1 min
  59. Bit rate mode                            : Constant
  60. Bit rate                                 : 384 kb/s
  61. Channel(s)                               : 6 channels
  62. Channel layout                           : L R C LFE Ls Rs
  63. Sampling rate                            : 48.0 kHz
  64. Frame rate                               : 31.250 FPS (1536 SPF)
  65. Compression mode                         : Lossy
  66. Stream size                              : 334 MiB (4%)
  67. Title                                    : English DD 5.1
  68. Language                                 : English
  69. Service kind                             : Complete Main
  70. Default                                  : No
  71. Forced                                   : No
  72. Text #1
  73. ID                                       : 4
  74. Format                                   : UTF-8
  75. Codec ID                                 : S_TEXT/UTF8
  76. Codec ID/Info                            : UTF-8 Plain Text
  77. Duration                                 : 2 h 0 min
  78. Bit rate                                 : 68 b/s
  79. Frame rate                               : 0.204 FPS
  80. Count of elements                        : 1482
  81. Stream size                              : 60.7 KiB (0%)
  82. Title                                    : English SRT
  83. Language                                 : English
  84. Default                                  : Yes
  85. Forced                                   : No
  86. Text #2
  87. ID                                       : 5
  88. Format                                   : UTF-8
  89. Codec ID                                 : S_TEXT/UTF8
  90. Codec ID/Info                            : UTF-8 Plain Text
  91. Duration                                 : 2 h 0 min
  92. Bit rate                                 : 81 b/s
  93. Frame rate                               : 0.257 FPS
  94. Count of elements                        : 1862
  95. Stream size                              : 71.9 KiB (0%)
  96. Title                                    : English SDH SRT
  97. Language                                 : English
  98. Default                                  : No
  99. Forced                                   : No
  100. Menu
  101. 00:00:00.000                             : en:Chapter 01
  102. 00:12:02.805                             : en:Chapter 02
  103. 00:24:06.403                             : en:Chapter 03
  104. 00:34:55.885                             : en:Chapter 04
  105. 00:47:15.249                             : en:Chapter 05
  106. 00:56:36.559                             : en:Chapter 06
  107. 01:14:12.823                             : en:Chapter 07
  108. 01:28:24.424                             : en:Chapter 08
  109. 01:39:22.331                             : en:Chapter 09
  110. 01:51:27.472                             : en:Chapter 10
复制代码











回复

使用道具 举报

懒得打字嘛,点击右侧快捷回复 【右侧内容,后台自定义】
您需要登录后才可以回帖 登录 | 立即加入

本版积分规则

Archiver|小黑屋| 蓝光电影网 |网站地图

Copyright © 2021 Comsenz Inc. Powered by 蓝光电影网

蓝光电影网

本站内容由用户自主分享和转载自互联网,转载目的在于传递更多信息,并不代表本网赞同其观点和对其真实性负责。

如有侵权、违反国家法律政策行为,请联系我们,我们会第一时间及时清除和处理!

举报反馈邮箱:[email protected]

快速回复 返回顶部 返回列表