找回密码

蓝光电影网

查看: 19|回复: 0

[剧情] 嘈杂噪音[中文字幕].Noise.2022.SPANISH.1080p.NF.WEBRip.DDP5.1.x264-SMURF 4.52GB

[复制链接]
蓝光币
1082
发表于 2023-1-11 22:12:06 | 显示全部楼层 |阅读模式


◎标  题 喧闹乐音
◎译  名 NOISE
◎片  名 Ruido
◎年  代 2022
◎产  地 墨西哥
◎类  别 剧情
◎语  言 西班牙语
◎上映日期 2022-09(圣塞巴斯蒂安电影节) / 2023-01-05(墨西哥)
◎IMDb评分 6.8/10 (20人评价)
◎IMDb链接 https://www.imdb.com/title/tt11306932/
◎豆瓣链接 https://movie.douban.com/subject/36097354/
◎导  演 娜妲莉雅·贝莉丝坦 Natalia Beristáin
◎编  剧 娜妲莉雅·贝莉丝坦 Natalia Beristáin
◎演  员 Julieta Egurrola Julieta Egurrola
       特蕾莎·鲁伊斯 Teresa Ruiz
◎简  介
    Julia is a mother, or rather, one of many mothers, sisters, daughters, colleagues, who have had their lives torn apart by the widespread violence in a country waging a war against its women. Julia is searching for Ger, her daughter. And in her search, she will weave through the stories and struggles of the different women she will meet.
  1. Video
  2. ID                                       : 1
  3. Format                                   : AVC
  4. Format/Info                              : Advanced Video Codec
  5. Format profile                           : [email protected]
  6. Format settings                          : CABAC / 3 Ref Frames
  7. Format settings, CABAC                   : Yes
  8. Format settings, Reference frames        : 3 frames
  9. Codec ID                                 : V_MPEG4/ISO/AVC
  10. Duration                                 : 1 h 46 min
  11. Bit rate mode                            : Variable
  12. Bit rate                                 : 5 000 kb/s
  13. Maximum bit rate                         : 7 500 kb/s
  14. Width                                    : 1 920 pixels
  15. Height                                   : 1 080 pixels
  16. Display aspect ratio                     : 16:9
  17. Frame rate mode                          : Constant
  18. Frame rate                               : 23.976 (24000/1001) FPS
  19. Color space                              : YUV
  20. Chroma subsampling                       : 4:2:0
  21. Bit depth                                : 8 bits
  22. Scan type                                : Progressive
  23. Bits/(Pixel*Frame)                       : 0.101
  24. Stream size                              : 3.56 GiB (79%)
  25. Writing library                          : x264 core 148 r2727 7d026e8
  26. Encoding settings                        : cabac=1 / ref=3 / deblock=1:0:0 / analyse=0x1:0x111 / me=umh / subme=10 / psy=1 / psy_rd=1.00:0.00 / mixed_ref=1 / me_range=24 / chroma_me=1 / trellis=2 / 8x8dct=0 / cqm=0 / deadzone=21,11 / fast_pskip=1 / chroma_qp_offset=-2 / threads=8 / lookahead_threads=1 / sliced_threads=0 / nr=0 / decimate=1 / interlaced=0 / bluray_compat=0 / stitchable=1 / constrained_intra=0 / bframes=2 / b_pyramid=0 / b_adapt=2 / b_bias=0 / direct=3 / weightb=1 / open_gop=0 / weightp=2 / keyint=48 / keyint_min=25 / scenecut=0 / intra_refresh=0 / rc_lookahead=48 / rc=2pass / mbtree=1 / bitrate=5000 / ratetol=1.0 / qcomp=0.50 / qpmin=6 / qpmax=51 / qpstep=4 / cplxblur=20.0 / qblur=0.5 / vbv_maxrate=7500 / vbv_bufsize=10000 / nal_hrd=vbr / filler=0 / ip_ratio=1.40 / aq=1:1.00
  27. Language                                 : Spanish
  28. Default                                  : Yes
  29. Forced                                   : No
  30. Audio #1
  31. ID                                       : 2
  32. Format                                   : E-AC-3
  33. Format/Info                              : Enhanced AC-3
  34. Commercial name                          : Dolby Digital Plus
  35. Codec ID                                 : A_EAC3
  36. Duration                                 : 1 h 46 min
  37. Bit rate mode                            : Constant
  38. Bit rate                                 : 640 kb/s
  39. Channel(s)                               : 6 channels
  40. Channel layout                           : L R C LFE Ls Rs
  41. Sampling rate                            : 48.0 kHz
  42. Frame rate                               : 31.250 FPS (1536 SPF)
  43. Compression mode                         : Lossy
  44. Stream size                              : 486 MiB (11%)
  45. Title                                    : Latin American
  46. Language                                 : Spanish (Latin America)
  47. Service kind                             : Complete Main
  48. Default                                  : Yes
  49. Forced                                   : No
  50. Audio #2
  51. ID                                       : 3
  52. Format                                   : E-AC-3
  53. Format/Info                              : Enhanced AC-3
  54. Commercial name                          : Dolby Digital Plus
  55. Codec ID                                 : A_EAC3
  56. Duration                                 : 1 h 46 min
  57. Bit rate mode                            : Constant
  58. Bit rate                                 : 640 kb/s
  59. Channel(s)                               : 6 channels
  60. Channel layout                           : L R C LFE Ls Rs
  61. Sampling rate                            : 48.0 kHz
  62. Frame rate                               : 31.250 FPS (1536 SPF)
  63. Compression mode                         : Lossy
  64. Stream size                              : 486 MiB (11%)
  65. Language                                 : English
  66. Service kind                             : Complete Main
  67. Default                                  : No
  68. Forced                                   : No
  69. Text #1
  70. ID                                       : 4
  71. Format                                   : UTF-8
  72. Codec ID                                 : S_TEXT/UTF8
  73. Codec ID/Info                            : UTF-8 Plain Text
  74. Duration                                 : 1 h 33 min
  75. Bit rate                                 : 42 b/s
  76. Frame rate                               : 0.166 FPS
  77. Count of elements                        : 936
  78. Stream size                              : 29.3 KiB (0%)
  79. Title                                    : Latin American
  80. Language                                 : Spanish (Latin America)
  81. Default                                  : No
  82. Forced                                   : No
  83. Text #2
  84. ID                                       : 5
  85. Format                                   : UTF-8
  86. Codec ID                                 : S_TEXT/UTF8
  87. Codec ID/Info                            : UTF-8 Plain Text
  88. Duration                                 : 1 h 43 min
  89. Bit rate                                 : 49 b/s
  90. Frame rate                               : 0.196 FPS
  91. Count of elements                        : 1210
  92. Stream size                              : 37.5 KiB (0%)
  93. Title                                    : Latin American (SDH)
  94. Language                                 : Spanish (Latin America)
  95. Default                                  : No
  96. Forced                                   : No
  97. Text #3
  98. ID                                       : 6
  99. Format                                   : UTF-8
  100. Codec ID                                 : S_TEXT/UTF8
  101. Codec ID/Info                            : UTF-8 Plain Text
  102. Duration                                 : 1 h 44 min
  103. Bit rate                                 : 3 b/s
  104. Frame rate                               : 0.009 FPS
  105. Count of elements                        : 57
  106. Stream size                              : 2.33 KiB (0%)
  107. Title                                    : Forced
  108. Language                                 : English
  109. Default                                  : No
  110. Forced                                   : Yes
  111. Text #4
  112. ID                                       : 7
  113. Format                                   : UTF-8
  114. Codec ID                                 : S_TEXT/UTF8
  115. Codec ID/Info                            : UTF-8 Plain Text
  116. Duration                                 : 1 h 44 min
  117. Bit rate                                 : 44 b/s
  118. Frame rate                               : 0.161 FPS
  119. Count of elements                        : 1014
  120. Stream size                              : 34.3 KiB (0%)
  121. Language                                 : English
  122. Default                                  : No
  123. Forced                                   : No
  124. Text #5
  125. ID                                       : 8
  126. Format                                   : UTF-8
  127. Codec ID                                 : S_TEXT/UTF8
  128. Codec ID/Info                            : UTF-8 Plain Text
  129. Duration                                 : 1 h 44 min
  130. Bit rate                                 : 57 b/s
  131. Frame rate                               : 0.218 FPS
  132. Count of elements                        : 1368
  133. Stream size                              : 44.3 KiB (0%)
  134. Title                                    : SDH
  135. Language                                 : English
  136. Default                                  : No
  137. Forced                                   : No
  138. Text #6
  139. ID                                       : 9
  140. Format                                   : UTF-8
  141. Codec ID                                 : S_TEXT/UTF8
  142. Codec ID/Info                            : UTF-8 Plain Text
  143. Duration                                 : 1 h 44 min
  144. Bit rate                                 : 63 b/s
  145. Frame rate                               : 0.155 FPS
  146. Count of elements                        : 975
  147. Stream size                              : 49.1 KiB (0%)
  148. Language                                 : Arabic
  149. Default                                  : No
  150. Forced                                   : No
  151. Text #7
  152. ID                                       : 10
  153. Format                                   : UTF-8
  154. Codec ID                                 : S_TEXT/UTF8
  155. Codec ID/Info                            : UTF-8 Plain Text
  156. Duration                                 : 1 h 44 min
  157. Bit rate                                 : 37 b/s
  158. Frame rate                               : 0.151 FPS
  159. Count of elements                        : 950
  160. Stream size                              : 28.7 KiB (0%)
  161. Language                                 : Czech
  162. Default                                  : No
  163. Forced                                   : No
  164. Text #8
  165. ID                                       : 11
  166. Format                                   : UTF-8
  167. Codec ID                                 : S_TEXT/UTF8
  168. Codec ID/Info                            : UTF-8 Plain Text
  169. Duration                                 : 1 h 44 min
  170. Bit rate                                 : 36 b/s
  171. Frame rate                               : 0.154 FPS
  172. Count of elements                        : 967
  173. Stream size                              : 27.9 KiB (0%)
  174. Language                                 : Danish
  175. Default                                  : No
  176. Forced                                   : No
  177. Text #9
  178. ID                                       : 12
  179. Format                                   : UTF-8
  180. Codec ID                                 : S_TEXT/UTF8
  181. Codec ID/Info                            : UTF-8 Plain Text
  182. Duration                                 : 1 h 44 min
  183. Bit rate                                 : 36 b/s
  184. Frame rate                               : 0.141 FPS
  185. Count of elements                        : 886
  186. Stream size                              : 28.4 KiB (0%)
  187. Language                                 : German
  188. Default                                  : No
  189. Forced                                   : No
  190. Text #10
  191. ID                                       : 13
  192. Format                                   : UTF-8
  193. Codec ID                                 : S_TEXT/UTF8
  194. Codec ID/Info                            : UTF-8 Plain Text
  195. Duration                                 : 1 h 44 min
  196. Bit rate                                 : 64 b/s
  197. Frame rate                               : 0.151 FPS
  198. Count of elements                        : 949
  199. Stream size                              : 49.2 KiB (0%)
  200. Language                                 : Greek
  201. Default                                  : No
  202. Forced                                   : No
  203. Text #11
  204. ID                                       : 14
  205. Format                                   : UTF-8
  206. Codec ID                                 : S_TEXT/UTF8
  207. Codec ID/Info                            : UTF-8 Plain Text
  208. Duration                                 : 1 h 44 min
  209. Bit rate                                 : 35 b/s
  210. Frame rate                               : 0.145 FPS
  211. Count of elements                        : 914
  212. Stream size                              : 27.2 KiB (0%)
  213. Language                                 : Finnish
  214. Default                                  : No
  215. Forced                                   : No
  216. Text #12
  217. ID                                       : 15
  218. Format                                   : UTF-8
  219. Codec ID                                 : S_TEXT/UTF8
  220. Codec ID/Info                            : UTF-8 Plain Text
  221. Duration                                 : 1 h 44 min
  222. Bit rate                                 : 36 b/s
  223. Frame rate                               : 0.154 FPS
  224. Count of elements                        : 970
  225. Stream size                              : 28.2 KiB (0%)
  226. Language                                 : fil
  227. Default                                  : No
  228. Forced                                   : No
  229. Text #13
  230. ID                                       : 16
  231. Format                                   : UTF-8
  232. Codec ID                                 : S_TEXT/UTF8
  233. Codec ID/Info                            : UTF-8 Plain Text
  234. Duration                                 : 1 h 44 min
  235. Bit rate                                 : 39 b/s
  236. Frame rate                               : 0.153 FPS
  237. Count of elements                        : 962
  238. Stream size                              : 30.7 KiB (0%)
  239. Language                                 : French
  240. Default                                  : No
  241. Forced                                   : No
  242. Text #14
  243. ID                                       : 17
  244. Format                                   : UTF-8
  245. Codec ID                                 : S_TEXT/UTF8
  246. Codec ID/Info                            : UTF-8 Plain Text
  247. Duration                                 : 1 h 44 min
  248. Bit rate                                 : 61 b/s
  249. Frame rate                               : 0.153 FPS
  250. Count of elements                        : 964
  251. Stream size                              : 47.5 KiB (0%)
  252. Language                                 : Hebrew
  253. Default                                  : No
  254. Forced                                   : No
  255. Text #15
  256. ID                                       : 18
  257. Format                                   : UTF-8
  258. Codec ID                                 : S_TEXT/UTF8
  259. Codec ID/Info                            : UTF-8 Plain Text
  260. Duration                                 : 1 h 44 min
  261. Bit rate                                 : 33 b/s
  262. Frame rate                               : 0.149 FPS
  263. Count of elements                        : 940
  264. Stream size                              : 25.9 KiB (0%)
  265. Language                                 : Croatian
  266. Default                                  : No
  267. Forced                                   : No
  268. Text #16
  269. ID                                       : 19
  270. Format                                   : UTF-8
  271. Codec ID                                 : S_TEXT/UTF8
  272. Codec ID/Info                            : UTF-8 Plain Text
  273. Duration                                 : 1 h 44 min
  274. Bit rate                                 : 38 b/s
  275. Frame rate                               : 0.152 FPS
  276. Count of elements                        : 960
  277. Stream size                              : 29.6 KiB (0%)
  278. Language                                 : Hungarian
  279. Default                                  : No
  280. Forced                                   : No
  281. Text #17
  282. ID                                       : 20
  283. Format                                   : UTF-8
  284. Codec ID                                 : S_TEXT/UTF8
  285. Codec ID/Info                            : UTF-8 Plain Text
  286. Duration                                 : 1 h 44 min
  287. Bit rate                                 : 38 b/s
  288. Frame rate                               : 0.155 FPS
  289. Count of elements                        : 974
  290. Stream size                              : 29.7 KiB (0%)
  291. Language                                 : Indonesian
  292. Default                                  : No
  293. Forced                                   : No
  294. Text #18
  295. ID                                       : 21
  296. Format                                   : UTF-8
  297. Codec ID                                 : S_TEXT/UTF8
  298. Codec ID/Info                            : UTF-8 Plain Text
  299. Duration                                 : 1 h 44 min
  300. Bit rate                                 : 36 b/s
  301. Frame rate                               : 0.153 FPS
  302. Count of elements                        : 966
  303. Stream size                              : 27.9 KiB (0%)
  304. Language                                 : Italian
  305. Default                                  : No
  306. Forced                                   : No
  307. Text #19
  308. ID                                       : 22
  309. Format                                   : UTF-8
  310. Codec ID                                 : S_TEXT/UTF8
  311. Codec ID/Info                            : UTF-8 Plain Text
  312. Duration                                 : 1 h 44 min
  313. Bit rate                                 : 39 b/s
  314. Frame rate                               : 0.155 FPS
  315. Count of elements                        : 979
  316. Stream size                              : 30.6 KiB (0%)
  317. Language                                 : Japanese
  318. Default                                  : No
  319. Forced                                   : No
  320. Text #20
  321. ID                                       : 23
  322. Format                                   : UTF-8
  323. Codec ID                                 : S_TEXT/UTF8
  324. Codec ID/Info                            : UTF-8 Plain Text
  325. Duration                                 : 1 h 44 min
  326. Bit rate                                 : 49 b/s
  327. Frame rate                               : 0.155 FPS
  328. Count of elements                        : 979
  329. Stream size                              : 37.8 KiB (0%)
  330. Language                                 : Korean
  331. Default                                  : No
  332. Forced                                   : No
  333. Text #21
  334. ID                                       : 24
  335. Format                                   : UTF-8
  336. Codec ID                                 : S_TEXT/UTF8
  337. Codec ID/Info                            : UTF-8 Plain Text
  338. Duration                                 : 1 h 44 min
  339. Bit rate                                 : 38 b/s
  340. Frame rate                               : 0.155 FPS
  341. Count of elements                        : 975
  342. Stream size                              : 29.5 KiB (0%)
  343. Language                                 : Malay
  344. Default                                  : No
  345. Forced                                   : No
  346. Text #22
  347. ID                                       : 25
  348. Format                                   : UTF-8
  349. Codec ID                                 : S_TEXT/UTF8
  350. Codec ID/Info                            : UTF-8 Plain Text
  351. Duration                                 : 1 h 44 min
  352. Bit rate                                 : 37 b/s
  353. Frame rate                               : 0.135 FPS
  354. Count of elements                        : 849
  355. Stream size                              : 28.9 KiB (0%)
  356. Language                                 : Norwegian Bokmal
  357. Default                                  : No
  358. Forced                                   : No
  359. Text #23
  360. ID                                       : 26
  361. Format                                   : UTF-8
  362. Codec ID                                 : S_TEXT/UTF8
  363. Codec ID/Info                            : UTF-8 Plain Text
  364. Duration                                 : 1 h 44 min
  365. Bit rate                                 : 35 b/s
  366. Frame rate                               : 0.148 FPS
  367. Count of elements                        : 931
  368. Stream size                              : 27.1 KiB (0%)
  369. Language                                 : Dutch
  370. Default                                  : No
  371. Forced                                   : No
  372. Text #24
  373. ID                                       : 27
  374. Format                                   : UTF-8
  375. Codec ID                                 : S_TEXT/UTF8
  376. Codec ID/Info                            : UTF-8 Plain Text
  377. Duration                                 : 1 h 44 min
  378. Bit rate                                 : 33 b/s
  379. Frame rate                               : 0.148 FPS
  380. Count of elements                        : 929
  381. Stream size                              : 25.9 KiB (0%)
  382. Language                                 : Polish
  383. Default                                  : No
  384. Forced                                   : No
  385. Text #25
  386. ID                                       : 28
  387. Format                                   : UTF-8
  388. Codec ID                                 : S_TEXT/UTF8
  389. Codec ID/Info                            : UTF-8 Plain Text
  390. Duration                                 : 1 h 44 min
  391. Bit rate                                 : 38 b/s
  392. Frame rate                               : 0.152 FPS
  393. Count of elements                        : 959
  394. Stream size                              : 29.5 KiB (0%)
  395. Title                                    : Brazilian
  396. Language                                 : Portuguese (BR)
  397. Default                                  : No
  398. Forced                                   : No
  399. Text #26
  400. ID                                       : 29
  401. Format                                   : UTF-8
  402. Codec ID                                 : S_TEXT/UTF8
  403. Codec ID/Info                            : UTF-8 Plain Text
  404. Duration                                 : 1 h 44 min
  405. Bit rate                                 : 37 b/s
  406. Frame rate                               : 0.153 FPS
  407. Count of elements                        : 966
  408. Stream size                              : 29.1 KiB (0%)
  409. Language                                 : Portuguese (PT)
  410. Default                                  : No
  411. Forced                                   : No
  412. Text #27
  413. ID                                       : 30
  414. Format                                   : UTF-8
  415. Codec ID                                 : S_TEXT/UTF8
  416. Codec ID/Info                            : UTF-8 Plain Text
  417. Duration                                 : 1 h 44 min
  418. Bit rate                                 : 42 b/s
  419. Frame rate                               : 0.154 FPS
  420. Count of elements                        : 968
  421. Stream size                              : 32.8 KiB (0%)
  422. Language                                 : Romanian
  423. Default                                  : No
  424. Forced                                   : No
  425. Text #28
  426. ID                                       : 31
  427. Format                                   : UTF-8
  428. Codec ID                                 : S_TEXT/UTF8
  429. Codec ID/Info                            : UTF-8 Plain Text
  430. Duration                                 : 1 h 44 min
  431. Bit rate                                 : 59 b/s
  432. Frame rate                               : 0.155 FPS
  433. Count of elements                        : 975
  434. Stream size                              : 45.6 KiB (0%)
  435. Language                                 : Russian
  436. Default                                  : No
  437. Forced                                   : No
  438. Text #29
  439. ID                                       : 32
  440. Format                                   : UTF-8
  441. Codec ID                                 : S_TEXT/UTF8
  442. Codec ID/Info                            : UTF-8 Plain Text
  443. Duration                                 : 1 h 44 min
  444. Bit rate                                 : 36 b/s
  445. Frame rate                               : 0.139 FPS
  446. Count of elements                        : 875
  447. Stream size                              : 28.3 KiB (0%)
  448. Language                                 : Swedish
  449. Default                                  : No
  450. Forced                                   : No
  451. Text #30
  452. ID                                       : 33
  453. Format                                   : UTF-8
  454. Codec ID                                 : S_TEXT/UTF8
  455. Codec ID/Info                            : UTF-8 Plain Text
  456. Duration                                 : 1 h 44 min
  457. Bit rate                                 : 99 b/s
  458. Frame rate                               : 0.155 FPS
  459. Count of elements                        : 975
  460. Stream size                              : 76.2 KiB (0%)
  461. Language                                 : Thai
  462. Default                                  : No
  463. Forced                                   : No
  464. Text #31
  465. ID                                       : 34
  466. Format                                   : UTF-8
  467. Codec ID                                 : S_TEXT/UTF8
  468. Codec ID/Info                            : UTF-8 Plain Text
  469. Duration                                 : 1 h 44 min
  470. Bit rate                                 : 38 b/s
  471. Frame rate                               : 0.143 FPS
  472. Count of elements                        : 900
  473. Stream size                              : 29.6 KiB (0%)
  474. Language                                 : Turkish
  475. Default                                  : No
  476. Forced                                   : No
  477. Text #32
  478. ID                                       : 35
  479. Format                                   : UTF-8
  480. Codec ID                                 : S_TEXT/UTF8
  481. Codec ID/Info                            : UTF-8 Plain Text
  482. Duration                                 : 1 h 44 min
  483. Bit rate                                 : 59 b/s
  484. Frame rate                               : 0.154 FPS
  485. Count of elements                        : 968
  486. Stream size                              : 46.0 KiB (0%)
  487. Language                                 : Ukrainian
  488. Default                                  : No
  489. Forced                                   : No
  490. Text #33
  491. ID                                       : 36
  492. Format                                   : UTF-8
  493. Codec ID                                 : S_TEXT/UTF8
  494. Codec ID/Info                            : UTF-8 Plain Text
  495. Duration                                 : 1 h 44 min
  496. Bit rate                                 : 54 b/s
  497. Frame rate                               : 0.147 FPS
  498. Count of elements                        : 925
  499. Stream size                              : 41.6 KiB (0%)
  500. Language                                 : Vietnamese
  501. Default                                  : No
  502. Forced                                   : No
  503. Text #34
  504. ID                                       : 37
  505. Format                                   : UTF-8
  506. Codec ID                                 : S_TEXT/UTF8
  507. Codec ID/Info                            : UTF-8 Plain Text
  508. Duration                                 : 1 h 44 min
  509. Bit rate                                 : 39 b/s
  510. Frame rate                               : 0.155 FPS
  511. Count of elements                        : 975
  512. Stream size                              : 30.7 KiB (0%)
  513. Title                                    : Simplified
  514. Language                                 : Chinese (Simplied)
  515. Default                                  : No
  516. Forced                                   : No
  517. Text #35
  518. ID                                       : 38
  519. Format                                   : UTF-8
  520. Codec ID                                 : S_TEXT/UTF8
  521. Codec ID/Info                            : UTF-8 Plain Text
  522. Duration                                 : 1 h 44 min
  523. Bit rate                                 : 37 b/s
  524. Frame rate                               : 0.155 FPS
  525. Count of elements                        : 974
  526. Stream size                              : 29.1 KiB (0%)
  527. Title                                    : Traditional
  528. Language                                 : Chinese (Traditional)
  529. Default                                  : No
  530. Forced                                   : No
  531. Menu
  532. 01:43:59.000                             : en:End Credits
复制代码











回复

使用道具 举报

懒得打字嘛,点击右侧快捷回复 【右侧内容,后台自定义】
您需要登录后才可以回帖 登录 | 立即加入

本版积分规则

Archiver|小黑屋| 蓝光电影网 |网站地图

Copyright © 2021 Comsenz Inc. Powered by 蓝光电影网

蓝光电影网

本站内容由用户自主分享和转载自互联网,转载目的在于传递更多信息,并不代表本网赞同其观点和对其真实性负责。

如有侵权、违反国家法律政策行为,请联系我们,我们会第一时间及时清除和处理!

举报反馈邮箱:[email protected]

快速回复 返回顶部 返回列表