找回密码

蓝光电影网

查看: 16|回复: 0

[喜剧] 海蒂也疯狂.Mad.Heidi.2022.1080p.WEBRip.x264-RARBG 1.77GB

[复制链接]
蓝光币
1084
发表于 2023-1-11 22:12:06 | 显示全部楼层 |阅读模式


◎标  题 海蒂也疯狂
◎译  名 Heidiland
◎片  名 Mad Heidi
◎年  代 2022
◎产  地 瑞士
◎类  别 笑剧 / 行动 / 可骇 / 奇异 / 冒险
◎语  言 英语 / 瑞士德语
◎上映日期 2022-09-07(布鲁塞尔国际奇异影展) / 2022-11-24(瑞士)
◎IMDb评分 5.8/10 (1140人评价)
◎IMDb链接 https://www.imdb.com/title/tt2943178/
◎豆瓣链接 https://movie.douban.com/subject/27072790/
◎片  长 92分钟
◎导  演 约翰内斯·哈特曼 Johannes Hartmann
       桑德罗·克洛普夫斯坦 Sandro Klopfstein
◎编  剧 桑德罗·克洛普夫斯坦 Sandro Klopfstein
       约翰内斯·哈特曼 Johannes Hartmann
       格雷戈里·D·威德默 Gregory D. Widmer
       特伦特·海伽 Trent Haaga
◎演  员 爱丽丝·露西 Alice Lucy
       大卫·斯科菲尔德 David Schofield
       卡斯帕·范·迪恩 Casper Van Dien
       Max Rüdlinger Max Rüdlinger
       Pascal Ulli Pascal Ulli
       卡塔·科尔姆 Katja Kolm
       Dominique Jann Dominique Jann
       米洛·莫蕾 Milo Moiré
       菲利普·舒勒 Philippe Schuler
       克莱门斯·特伦克尔 Klemens Trenkle
◎简  介
  影片恶搞自著名的《海蒂和爷爷》 ,报告在一个被邪恶的奶酪暴君法西斯统治的反乌托邦的瑞士,海蒂在阿尔卑斯山过着纯真的生活。爷爷Alpöhi尽他最大的尽力庇护海蒂,但她对自在的渴望很快使她堕入了麻烦。这个天真的女孩把自己酿成了一个复仇女神,她要扑灭阻挡她的一切。
  1. Video
  2. ID                                       : 1
  3. Format                                   : AVC
  4. Format/Info                              : Advanced Video Codec
  5. Format profile                           : [email protected]
  6. Format settings                          : CABAC / 4 Ref Frames
  7. Format settings, CABAC                   : Yes
  8. Format settings, Reference frames        : 4 frames
  9. Codec ID                                 : avc1
  10. Codec ID/Info                            : Advanced Video Coding
  11. Duration                                 : 1 h 32 min
  12. Bit rate                                 : 2 500 kb/s
  13. Width                                    : 1 920 pixels
  14. Height                                   : 756 pixels
  15. Display aspect ratio                     : 2.540
  16. Original display aspect ratio            : 2.541
  17. Frame rate mode                          : Constant
  18. Frame rate                               : 24.000 FPS
  19. Color space                              : YUV
  20. Chroma subsampling                       : 4:2:0
  21. Bit depth                                : 8 bits
  22. Scan type                                : Progressive
  23. Bits/(Pixel*Frame)                       : 0.072
  24. Stream size                              : 1.62 GiB (92%)
  25. Writing library                          : x264 core 152 r2851M ba24899
  26. Encoding settings                        : cabac=1 / ref=4 / deblock=1:-1:-1 / analyse=0x3:0x113 / me=umh / subme=9 / psy=1 / psy_rd=1.00:0.15 / mixed_ref=1 / me_range=24 / chroma_me=1 / trellis=2 / 8x8dct=1 / cqm=0 / deadzone=21,11 / fast_pskip=1 / chroma_qp_offset=-3 / threads=32 / lookahead_threads=4 / sliced_threads=0 / nr=0 / decimate=1 / interlaced=0 / bluray_compat=0 / constrained_intra=0 / bframes=3 / b_pyramid=2 / b_adapt=2 / b_bias=0 / direct=3 / weightb=1 / open_gop=0 / weightp=2 / keyint=250 / keyint_min=25 / scenecut=40 / intra_refresh=0 / rc_lookahead=50 / rc=2pass / mbtree=1 / bitrate=2500 / ratetol=1.0 / qcomp=0.60 / qpmin=0 / qpmax=69 / qpstep=4 / cplxblur=20.0 / qblur=0.5 / vbv_maxrate=31250 / vbv_bufsize=31250 / nal_hrd=none / filler=0 / ip_ratio=1.40 / aq=3:1.00
  27. Encoded date                             : UTC 2023-01-10 18:25:19
  28. Tagged date                              : UTC 2023-01-10 18:25:19
  29. Codec configuration box                  : avcC
  30. Audio
  31. ID                                       : 2
  32. Format                                   : AAC LC
  33. Format/Info                              : Advanced Audio Codec Low Complexity
  34. Codec ID                                 : mp4a-40-2
  35. Duration                                 : 1 h 32 min
  36. Duration_LastFrame                       : -16 ms
  37. Bit rate mode                            : Constant
  38. Bit rate                                 : 224 kb/s
  39. Channel(s)                               : 2 channels
  40. Channel layout                           : L R
  41. Sampling rate                            : 48.0 kHz
  42. Frame rate                               : 46.875 FPS (1024 SPF)
  43. Compression mode                         : Lossy
  44. Stream size                              : 149 MiB (8%)
  45. Language                                 : English
  46. Default                                  : Yes
  47. Alternate group                          : 1
  48. Encoded date                             : UTC 2023-01-10 18:25:19
  49. Tagged date                              : UTC 2023-01-10 18:25:19
复制代码











回复

使用道具 举报

懒得打字嘛,点击右侧快捷回复 【右侧内容,后台自定义】
您需要登录后才可以回帖 登录 | 立即加入

本版积分规则

Archiver|小黑屋| 蓝光电影网 |网站地图

Copyright © 2021 Comsenz Inc. Powered by 蓝光电影网

蓝光电影网

本站内容由用户自主分享和转载自互联网,转载目的在于传递更多信息,并不代表本网赞同其观点和对其真实性负责。

如有侵权、违反国家法律政策行为,请联系我们,我们会第一时间及时清除和处理!

举报反馈邮箱:[email protected]

快速回复 返回顶部 返回列表