找回密码

蓝光电影网

查看: 27|回复: 0

[喜剧] 猫与金丝雀.The.Cat.and.the.Canary.1939.720p.BluRay.x264-ORBS 4.74GB

[复制链接]
蓝光币
1084
发表于 2023-1-11 22:14:06 | 显示全部楼层 |阅读模式


◎标  题 猫与金丝雀
◎片  名 The Cat and the Canary
◎年  代 1939
◎产  地 美国
◎类  别 笑剧 / 悬疑 / 惊悚 / 可骇 / 家庭
◎语  言 英语
◎上映日期 1939-11-10(美国)
◎IMDb评分 7.2/10 (2968人评价)
◎IMDb链接 https://www.imdb.com/title/tt0031143/
◎豆瓣链接 https://movie.douban.com/subject/3288978/
◎片  长 72 分钟
◎导  演 埃利奥特·纽金特 Elliott Nugent
◎编  剧 沃尔特·德莱昂 Walter DeLeon
       林恩·斯塔林 Lynn Starling
       约翰·威拉德 John Willard
◎演  员 查尔斯·莱恩 Charles Lane
       Frank Melton Frank Melton
       Nick Thompson Nick Thompson
       雷云酋长 Chief Thundercloud
       乔治·祖科 George Zucco
       妮迪亚·威斯特曼 Nydia Westman
       Milton Kibbee Milton Kibbee
       约翰·雷 John Wray
       约翰·贝尔 John Beal
       鲍勃·霍普 Bob Hope
       George Regas George Regas
       道格拉斯·蒙哥马利 Douglass Montgomery
       伊丽莎白·帕特森 Elizabeth Patterson
       宝莲·高黛 Paulette Goddard
       盖尔·桑德加德 Gale Sondergaard
◎标  签 美国电影 / 悬疑 / 笑剧 / 美国 / 惊悚 / 1939 / 重拍版本 / 驚悚
◎简  介
    Ten years have passed since the death of millionaire, Cyrus Norman. Cosby, Cyrus’ attorney, has gathered Cyrus’ 6 remaining relatives to his New Orleans’ mansion for Cyrus’ “reading of the will”. To the others disappointment, Joyce is the sole heir, but, due to a streak of insanity running in the family, a second will has been made in case Joyce falls victim to it. This puts Joyce in danger. Suddenly, Miss Lu, Cyrus’ maid, appears and warns them that the spirits have told her that one of them will die that night. Following this, Hendrick, a prison guard, warns them that, “The Cat”, a homicidal maniac has escaped. This sets up Cyrus’ relatives with a night filled with murders, mysteries and intrigue.
  1. Video
  2. ID                                       : 1
  3. Format                                   : AVC
  4. Format/Info                              : Advanced Video Codec
  5. Format profile                           : [email protected]
  6. Format settings                          : CABAC / 11 Ref Frames
  7. Format settings, CABAC                   : Yes
  8. Format settings, Reference frames        : 11 frames
  9. Codec ID                                 : V_MPEG4/ISO/AVC
  10. Duration                                 : 1 h 14 min
  11. Bit rate                                 : 8 392 kb/s
  12. Width                                    : 976 pixels
  13. Height                                   : 720 pixels
  14. Display aspect ratio                     : 4:3
  15. Frame rate mode                          : Constant
  16. Frame rate                               : 23.976 (24000/1001) FPS
  17. Color space                              : YUV
  18. Chroma subsampling                       : 4:2:0
  19. Bit depth                                : 8 bits
  20. Scan type                                : Progressive
  21. Bits/(Pixel*Frame)                       : 0.498
  22. Stream size                              : 4.36 GiB (92%)
  23. Writing library                          : x264 core 164 r3102 416e3eb
  24. Encoding settings                        : cabac=1 / ref=11 / deblock=1:-3:-3 / analyse=0x3:0x133 / me=umh / subme=10 / psy=1 / psy_rd=1.20:0.00 / mixed_ref=1 / me_range=24 / chroma_me=1 / trellis=2 / 8x8dct=1 / cqm=0 / deadzone=21,11 / fast_pskip=0 / chroma_qp_offset=-2 / threads=22 / lookahead_threads=3 / sliced_threads=0 / nr=0 / decimate=0 / interlaced=0 / bluray_compat=0 / constrained_intra=0 / bframes=8 / b_pyramid=2 / b_adapt=2 / b_bias=0 / direct=3 / weightb=1 / open_gop=0 / weightp=2 / keyint=250 / keyint_min=23 / scenecut=40 / intra_refresh=0 / rc_lookahead=60 / rc=crf / mbtree=1 / crf=17.0 / qcomp=0.60 / qpmin=0 / qpmax=69 / qpstep=4 / ip_ratio=1.40 / aq=3:0.90
  25. Default                                  : Yes
  26. Forced                                   : No
  27. Color range                              : Limited
  28. Matrix coefficients                      : BT.709
  29. Audio #1
  30. ID                                       : 2
  31. Format                                   : FLAC
  32. Format/Info                              : Free Lossless Audio Codec
  33. Codec ID                                 : A_FLAC
  34. Duration                                 : 1 h 14 min
  35. Bit rate mode                            : Variable
  36. Bit rate                                 : 601 kb/s
  37. Channel(s)                               : 2 channels
  38. Channel layout                           : L R
  39. Sampling rate                            : 48.0 kHz
  40. Frame rate                               : 11.719 FPS (4096 SPF)
  41. Bit depth                                : 24 bits
  42. Compression mode                         : Lossless
  43. Stream size                              : 320 MiB (7%)
  44. Writing library                          : libFLAC 1.3.3 (UTC 2019-08-04)
  45. Language                                 : English
  46. Default                                  : Yes
  47. Forced                                   : No
  48. Audio #2
  49. ID                                       : 3
  50. Format                                   : AAC LC
  51. Format/Info                              : Advanced Audio Codec Low Complexity
  52. Codec ID                                 : A_AAC-2
  53. Duration                                 : 1 h 14 min
  54. Bit rate                                 : 96.0 kb/s
  55. Channel(s)                               : 2 channels
  56. Channel layout                           : L R
  57. Sampling rate                            : 48.0 kHz
  58. Frame rate                               : 46.875 FPS (1024 SPF)
  59. Compression mode                         : Lossy
  60. Delay relative to video                  : 20 ms
  61. Stream size                              : 50.1 MiB (1%)
  62. Title                                    : Commentary
  63. Language                                 : English
  64. Default                                  : No
  65. Forced                                   : No
  66. Text
  67. ID                                       : 4
  68. Format                                   : PGS
  69. Muxing mode                              : zlib
  70. Codec ID                                 : S_HDMV/PGS
  71. Codec ID/Info                            : Picture based subtitle format used on BDs/HD-DVDs
  72. Duration                                 : 1 h 13 min
  73. Bit rate                                 : 68.6 kb/s
  74. Count of elements                        : 2208
  75. Stream size                              : 36.1 MiB (1%)
  76. Title                                    : SDH
  77. Language                                 : English
  78. Default                                  : No
  79. Forced                                   : No
  80. Menu
  81. 00:00:00.000                             : Chapter 01
  82. 00:08:48.820                             : Chapter 02
  83. 00:18:43.414                             : Chapter 03
  84. 00:28:31.043                             : Chapter 04
  85. 00:38:59.003                             : Chapter 05
  86. 00:49:49.904                             : Chapter 06
  87. 01:01:30.353                             : Chapter 07
复制代码









回复

使用道具 举报

懒得打字嘛,点击右侧快捷回复 【右侧内容,后台自定义】
您需要登录后才可以回帖 登录 | 立即加入

本版积分规则

Archiver|小黑屋| 蓝光电影网 |网站地图

Copyright © 2021 Comsenz Inc. Powered by 蓝光电影网

蓝光电影网

本站内容由用户自主分享和转载自互联网,转载目的在于传递更多信息,并不代表本网赞同其观点和对其真实性负责。

如有侵权、违反国家法律政策行为,请联系我们,我们会第一时间及时清除和处理!

举报反馈邮箱:[email protected]

快速回复 返回顶部 返回列表