找回密码

蓝光电影网

查看: 41|回复: 1

[剧情] 里斯本的故事.Lisbon.Story.1994.1080p.BluRay.x264-GAZER 14.10GB

[复制链接]
蓝光币
1082
发表于 2023-1-11 22:20:42 | 显示全部楼层 |阅读模式


◎标  题 里斯本的故事
◎片  名 Lisbon Story
◎年  代 1994
◎产  地 德国 / 葡萄牙
◎类  别 剧情 / 音乐
◎语  言 英语 / 葡萄牙语 / 德语
◎上映日期 1995-05-12
◎IMDb评分 7.2/10 (4833人评价)
◎IMDb链接 https://www.imdb.com/title/tt0110361/
◎豆瓣评分 8.5/10 (3456人评价)
◎豆瓣链接 https://movie.douban.com/subject/1293876/
◎片  长 100分钟
◎导  演 维姆·文德斯 Wim Wenders
◎编  剧 维姆·文德斯 Wim Wenders
◎演  员 吕迪格·福格勒 Rüdiger Vogler
       帕特里克·波查 Patrick Bauchau
       曼努埃尔·德·奥利维拉 Manoel de Oliveira
       特蕾莎 萨尔圭罗 Teresa Salgueiro
       若昂·康尼 João Canijo
       维姆·文德斯 Wim Wenders
       若昂·康尼 João Canijo
       乌里希·费尔斯伯格 Ulrich Felsberg
       Lisa Rinzler Lisa Rinzler
◎标  签 德国 / 维姆·文德斯 / 葡萄牙 / WimWenders / 文艺 / 文德斯 / 德国电影 / 1994
◎简  介
  此片可以看做是文德斯《事物的状态》的续集。前集合的导演弗里德里希(帕特里克·波查 Patrick Bauchau 饰)在本片中去里斯本拍摄素材,他约请电影收音师菲利普(鲁迪格·福格勒 Rüdiger Vogler 饰)帮自己的默片收集声音。菲利浦接到约请明信片以后,依约赶往里斯本,却找不到弗里德里希的踪影,只发现他留下的一些奥秘线索。按照导演留下的一段关于里斯本某个小镇的胶卷,菲利普前往该地方收集声音。他穿越在街头巷尾,记录下各类声音。在里斯本游荡时代,他结识一位电影插曲演唱女歌手,生活自此增加了些许情调。影片最初,他找到了弗里德里希,领会到导演离走的缘由:面临贸易影象的冲击,导演已经对影象感应麻痹,没法再找到拍摄的灵感与豪情,因而发现了一种盲拍手法,将摄影机架在肩上,自己随意走动,听凭镜头记录所到之处的影象,他以为这类记录才是忠厚地记录一个地方,是...
  1. Video
  2. ID                                       : 1
  3. Format                                   : AVC
  4. Format/Info                              : Advanced Video Codec
  5. Format profile                           : [email protected]
  6. Format settings                          : CABAC / 4 Ref Frames
  7. Format settings, CABAC                   : Yes
  8. Format settings, Reference frames        : 4 frames
  9. Codec ID                                 : V_MPEG4/ISO/AVC
  10. Duration                                 : 1 h 44 min
  11. Bit rate                                 : 17.3 Mb/s
  12. Width                                    : 1 800 pixels
  13. Height                                   : 1 080 pixels
  14. Display aspect ratio                     : 5:3
  15. Frame rate mode                          : Constant
  16. Frame rate                               : 24.000 FPS
  17. Color space                              : YUV
  18. Chroma subsampling                       : 4:2:0
  19. Bit depth                                : 8 bits
  20. Scan type                                : Progressive
  21. Bits/(Pixel*Frame)                       : 0.370
  22. Stream size                              : 12.7 GiB (90%)
  23. Writing library                          : x264 core 164 r3102 416e3eb
  24. Encoding settings                        : cabac=1 / ref=4 / deblock=1:-3:-3 / analyse=0x3:0x133 / me=umh / subme=10 / psy=1 / psy_rd=1.20:0.00 / mixed_ref=1 / me_range=24 / chroma_me=1 / trellis=2 / 8x8dct=1 / cqm=0 / deadzone=21,11 / fast_pskip=0 / chroma_qp_offset=-2 / threads=24 / lookahead_threads=4 / sliced_threads=0 / nr=0 / decimate=0 / interlaced=0 / bluray_compat=0 / constrained_intra=0 / bframes=8 / b_pyramid=2 / b_adapt=2 / b_bias=0 / direct=3 / weightb=1 / open_gop=0 / weightp=2 / keyint=250 / keyint_min=24 / scenecut=40 / intra_refresh=0 / rc_lookahead=60 / rc=crf / mbtree=1 / crf=19.0 / qcomp=0.60 / qpmin=0 / qpmax=69 / qpstep=4 / ip_ratio=1.40 / aq=3:0.90
  25. Default                                  : Yes
  26. Forced                                   : No
  27. Color range                              : Limited
  28. Matrix coefficients                      : BT.709
  29. Audio
  30. ID                                       : 2
  31. Format                                   : DTS XLL
  32. Format/Info                              : Digital Theater Systems
  33. Commercial name                          : DTS-HD Master Audio
  34. Codec ID                                 : A_DTS
  35. Duration                                 : 1 h 44 min
  36. Bit rate mode                            : Variable
  37. Bit rate                                 : 1 975 kb/s
  38. Channel(s)                               : 6 channels
  39. Channel layout                           : C L R Ls Rs LFE
  40. Sampling rate                            : 48.0 kHz
  41. Frame rate                               : 93.750 FPS (512 SPF)
  42. Bit depth                                : 16 bits
  43. Compression mode                         : Lossless
  44. Stream size                              : 1.45 GiB (10%)
  45. Language                                 : English
  46. Default                                  : Yes
  47. Forced                                   : No
  48. Text #1
  49. ID                                       : 3
  50. Format                                   : UTF-8
  51. Codec ID                                 : S_TEXT/UTF8
  52. Codec ID/Info                            : UTF-8 Plain Text
  53. Duration                                 : 1 h 41 min
  54. Bit rate                                 : 9 b/s
  55. Count of elements                        : 245
  56. Stream size                              : 6.82 KiB (0%)
  57. Title                                    : English (Forced)
  58. Language                                 : English
  59. Default                                  : Yes
  60. Forced                                   : Yes
  61. Text #2
  62. ID                                       : 4
  63. Format                                   : PGS
  64. Muxing mode                              : zlib
  65. Codec ID                                 : S_HDMV/PGS
  66. Codec ID/Info                            : Picture based subtitle format used on BDs/HD-DVDs
  67. Duration                                 : 1 h 41 min
  68. Bit rate                                 : 4 781 b/s
  69. Count of elements                        : 490
  70. Stream size                              : 3.49 MiB (0%)
  71. Language                                 : English
  72. Default                                  : No
  73. Forced                                   : No
  74. Menu
  75. 00:00:00.000                             : Chapter 01
  76. 00:13:51.250                             : Chapter 02
  77. 00:22:35.542                             : Chapter 03
  78. 00:29:21.500                             : Chapter 04
  79. 00:41:57.917                             : Chapter 05
  80. 00:50:38.292                             : Chapter 06
  81. 01:03:13.292                             : Chapter 07
  82. 01:10:15.500                             : Chapter 08
  83. 01:17:14.292                             : Chapter 09
  84. 01:28:05.750                             : Chapter 10
  85. 01:36:29.667                             : Chapter 11
  86. 01:42:02.625                             : Chapter 12
复制代码









回复

使用道具 举报

蓝光币
208
发表于 2023-1-12 23:00:48 | 显示全部楼层
感谢分享!
回复

使用道具 举报

懒得打字嘛,点击右侧快捷回复 【右侧内容,后台自定义】
您需要登录后才可以回帖 登录 | 立即加入

本版积分规则

Archiver|小黑屋| 蓝光电影网 |网站地图

Copyright © 2021 Comsenz Inc. Powered by 蓝光电影网

蓝光电影网

本站内容由用户自主分享和转载自互联网,转载目的在于传递更多信息,并不代表本网赞同其观点和对其真实性负责。

如有侵权、违反国家法律政策行为,请联系我们,我们会第一时间及时清除和处理!

举报反馈邮箱:[email protected]

快速回复 返回顶部 返回列表