找回密码

蓝光电影网

查看: 32|回复: 0

[悬疑] 蒙娜丽莎与血月亮.Mona.Lisa.and.the.Blood.Moon.2021.1080p.BluRay.x264.DTS-FGT 9.77GB

[复制链接]
蓝光币
1082
发表于 2023-1-11 22:20:46 | 显示全部楼层 |阅读模式


◎标  题 蒙娜丽莎与血月亮
◎译  名 血月亮 / 血月 / Blood Moon
◎片  名 Mona Lisa and the Blood Moon
◎年  代 2021
◎产  地 美国
◎类  别 悬疑 / 惊悚 / 奇异
◎语  言 英语
◎上映日期 2021-09-05(威尼斯电影节) / 2022-09-30(美国)
◎IMDb评分 6.5/10 (413人评价)
◎IMDb链接 https://www.imdb.com/title/tt8760670/
◎豆瓣链接 https://movie.douban.com/subject/30364978/
◎片  长 106分钟
◎导  演 安娜·莉莉·阿米普尔 Ana Lily Amirpour
◎编  剧 安娜·莉莉·阿米普尔 Ana Lily Amirpour
◎演  员 凯特·哈德森 Kate Hudson
       全钟瑞 Jong-seo Jeon
       艾德·斯克林 Ed Skrein
       蕾·格雷 Rae Gray
       克雷格·罗宾森 Craig Robinson
       西尔维娅·格雷丝·克里姆 Sylvia Grace Crim
       查理·塔尔伯特 Charlie Talbert
       Altonio Jackson Altonio Jackson
       雷内尔·吉布斯 Renell Gibbs
       迈克尔·卡罗洛 Michael Carollo
       里奇·蒙哥马利 Ritchie Montgomery
       肯特·绍克内克 Kent Shocknek
       比利·斯洛特 Billy Slaughter
       科尔比·布斯曼 Colby Boothman
       吉吉·埃内塔 GiGi Erneta
       吉姆·格里森 Jim Gleason
       安东尼·雷诺兹 Anthony Reynolds
       肯尼思·肯特·布赖恩 Kenneth Kynt Bryan
       Phyllis Montana LeBlanc Phyllis Montana LeBlanc
       萨曼莎·博利厄 Samantha Beaulieu
       唐娜·杜普兰提尔 Donna Duplantier
       吉布瑞尔·南谭布 Jibrail Nantambu
       格拉伦·布莱恩特·班克斯 Gralen Bryant Banks
       托尼·查普曼·斯蒂尔 Toney Chapman Steele
       Liann Pattison Liann Pattison
       詹姆斯·W·埃弗莫尔 James W. Evermore
       蒂莫西·辛里奇斯 Timothy Hinrichs
       戈登·德克海默 Gordon Dexheimer
       约翰·莱舍尔 John Lesher
       帕维尔·波哥泽尔斯基 Pawel Pogorzelski
◎简  介
  凯特·哈德森、克雷格·罗宾森([香肠派对])加盟新片[血月亮](Blood Moon,暂译),扎克·埃夫隆也有望出演。安娜·莉莉·阿米普尔([单独夜归的女孩])自编自导,约翰·莱舍尔([鸟人])担任制片。故事围绕一个具有危险超才能的女子重新奥尔良精神医院逃走展开。影片将在美国电影市场预售,明春开拍。
  1. Video
  2. ID                                       : 1
  3. Format                                   : AVC
  4. Format/Info                              : Advanced Video Codec
  5. Format profile                           : [email protected]
  6. Format settings                          : CABAC / 4 Ref Frames
  7. Format settings, CABAC                   : Yes
  8. Format settings, Reference frames        : 4 frames
  9. Codec ID                                 : V_MPEG4/ISO/AVC
  10. Duration                                 : 1 h 47 min
  11. Bit rate                                 : 11.5 Mb/s
  12. Width                                    : 1 920 pixels
  13. Height                                   : 1 036 pixels
  14. Display aspect ratio                     : 1.85:1
  15. Frame rate mode                          : Constant
  16. Frame rate                               : 23.976 (24000/1001) FPS
  17. Color space                              : YUV
  18. Chroma subsampling                       : 4:2:0
  19. Bit depth                                : 8 bits
  20. Scan type                                : Progressive
  21. Bits/(Pixel*Frame)                       : 0.241
  22. Stream size                              : 8.63 GiB (88%)
  23. Writing library                          : x264 core 148 r2748 97eaef2
  24. Encoding settings                        : cabac=1 / ref=4 / deblock=1:-2:-2 / analyse=0x3:0x113 / me=umh / subme=9 / psy=1 / psy_rd=1.00:0.15 / mixed_ref=1 / me_range=16 / chroma_me=1 / trellis=2 / 8x8dct=1 / cqm=0 / deadzone=21,11 / fast_pskip=1 / chroma_qp_offset=-3 / threads=72 / lookahead_threads=3 / sliced_threads=0 / nr=0 / decimate=1 / interlaced=0 / bluray_compat=0 / constrained_intra=0 / bframes=3 / b_pyramid=2 / b_adapt=1 / b_bias=0 / direct=3 / weightb=1 / open_gop=0 / weightp=2 / keyint=250 / keyint_min=25 / scenecut=40 / intra_refresh=0 / rc_lookahead=50 / rc=2pass / mbtree=1 / bitrate=11500 / ratetol=1.0 / qcomp=0.60 / qpmin=0 / qpmax=69 / qpstep=4 / cplxblur=20.0 / qblur=0.5 / vbv_maxrate=31250 / vbv_bufsize=31250 / nal_hrd=none / filler=0 / ip_ratio=1.40 / aq=1:1.00
  25. Language                                 : English
  26. Default                                  : Yes
  27. Forced                                   : No
  28. Audio
  29. ID                                       : 2
  30. Format                                   : DTS
  31. Format/Info                              : Digital Theater Systems
  32. Codec ID                                 : A_DTS
  33. Duration                                 : 1 h 47 min
  34. Bit rate mode                            : Constant
  35. Bit rate                                 : 1 509 kb/s
  36. Channel(s)                               : 6 channels
  37. Channel layout                           : C L R Ls Rs LFE
  38. Sampling rate                            : 48.0 kHz
  39. Frame rate                               : 93.750 FPS (512 SPF)
  40. Bit depth                                : 24 bits
  41. Compression mode                         : Lossy
  42. Stream size                              : 1.13 GiB (12%)
  43. Language                                 : English
  44. Default                                  : Yes
  45. Forced                                   : No
  46. Text
  47. ID                                       : 3
  48. Format                                   : UTF-8
  49. Codec ID                                 : S_TEXT/UTF8
  50. Codec ID/Info                            : UTF-8 Plain Text
  51. Duration                                 : 1 h 36 min
  52. Bit rate                                 : 62 b/s
  53. Frame rate                               : 0.228 FPS
  54. Count of elements                        : 1327
  55. Stream size                              : 44.3 KiB (0%)
  56. Language                                 : English
  57. Default                                  : No
  58. Forced                                   : No
  59. Menu
  60. 00:00:00.000                             : en:Chapter 01
  61. 00:09:14.220                             : en:Chapter 02
  62. 00:21:12.229                             : en:Chapter 03
  63. 00:29:27.724                             : en:Chapter 04
  64. 00:36:20.470                             : en:Chapter 05
  65. 00:45:25.806                             : en:Chapter 06
  66. 00:52:32.608                             : en:Chapter 07
  67. 01:02:35.126                             : en:Chapter 08
  68. 01:11:45.218                             : en:Chapter 09
  69. 01:22:26.275                             : en:Chapter 10
  70. 01:31:19.724                             : en:Chapter 11
  71. 01:38:44.502                             : en:Chapter 12
复制代码











回复

使用道具 举报

懒得打字嘛,点击右侧快捷回复 【右侧内容,后台自定义】
您需要登录后才可以回帖 登录 | 立即加入

本版积分规则

Archiver|小黑屋| 蓝光电影网 |网站地图

Copyright © 2021 Comsenz Inc. Powered by 蓝光电影网

蓝光电影网

本站内容由用户自主分享和转载自互联网,转载目的在于传递更多信息,并不代表本网赞同其观点和对其真实性负责。

如有侵权、违反国家法律政策行为,请联系我们,我们会第一时间及时清除和处理!

举报反馈邮箱:[email protected]

快速回复 返回顶部 返回列表