找回密码

蓝光电影网

查看: 61|回复: 0

[悬疑] 角色.Character.2021.JAPANESE.1080p.BluRay.x264.DD5.1-iKiW 12.98GB

[复制链接]
蓝光币
1080
发表于 2023-1-11 22:20:46 | 显示全部楼层 |阅读模式


◎标  题 脚色
◎译  名 漫画杀人狂(港) / Character
◎片  名 キャラクター
◎年  代 2021
◎产  地 日本
◎类  别 悬疑 / 犯罪
◎语  言 日语
◎上映日期 2021-06-11(日本)
◎IMDb评分 6.5/10 (582人评价)
◎IMDb链接 https://www.imdb.com/title/tt14118266/
◎豆瓣评分 6.6/10 (11772人评价)
◎豆瓣链接 https://movie.douban.com/subject/35280911/
◎片  长 125分钟
◎导  演 永井聪 Akira Nagai
◎编  剧 长崎尚志 Takashi Nagasaki
◎演  员 菅田将晖 Masaki Suda
       深濑慧 Satoshi Fukase
       小栗旬 Shun Oguri
       高畑充希 Mitsuki Takahata
       中村狮童 Shido Nakamura
       安藤彰则 Akinori Andô
       松田洋治 Yôji Matsuda
◎简  介
  漫画助手山城圭吾(菅田将晖 饰)一向胡想成为畅销漫画家,虽然他有画功但却由于老好人的性情而没法刻画脚色之“恶”。一次偶然的机遇,山城目击了一场杀人案,并起头创作以监犯为原型的漫画《34》。这部漫画大热,但模仿漫画里的杀人案件也起头连续出现,而这时,凶手两角(Fukase 饰)再次出现在了山城眼前,“您画的漫画,我把它酿成了现实…”
  1. Video
  2. ID                                       : 1
  3. Format                                   : AVC
  4. Format/Info                              : Advanced Video Codec
  5. Format profile                           : [email protected]
  6. Format settings                          : CABAC / 4 Ref Frames
  7. Format settings, CABAC                   : Yes
  8. Format settings, Reference frames        : 4 frames
  9. Codec ID                                 : V_MPEG4/ISO/AVC
  10. Duration                                 : 2 h 5 min
  11. Bit rate                                 : 14.1 Mb/s
  12. Width                                    : 1 920 pixels
  13. Height                                   : 1 038 pixels
  14. Display aspect ratio                     : 1.85:1
  15. Frame rate mode                          : Constant
  16. Frame rate                               : 23.976 (24000/1001) FPS
  17. Color space                              : YUV
  18. Chroma subsampling                       : 4:2:0
  19. Bit depth                                : 8 bits
  20. Scan type                                : Progressive
  21. Bits/(Pixel*Frame)                       : 0.295
  22. Stream size                              : 12.4 GiB (96%)
  23. Title                                    : Jubowo @ WiKi
  24. Language                                 : Japanese
  25. Default                                  : Yes
  26. Forced                                   : No
  27. Audio
  28. ID                                       : 2
  29. Format                                   : AC-3
  30. Format/Info                              : Audio Coding 3
  31. Commercial name                          : Dolby Digital
  32. Codec ID                                 : A_AC3
  33. Duration                                 : 2 h 5 min
  34. Bit rate mode                            : Constant
  35. Bit rate                                 : 640 kb/s
  36. Channel(s)                               : 6 channels
  37. Channel layout                           : L R C LFE Ls Rs
  38. Sampling rate                            : 48.0 kHz
  39. Frame rate                               : 31.250 FPS (1536 SPF)
  40. Compression mode                         : Lossy
  41. Stream size                              : 577 MiB (4%)
  42. Language                                 : Japanese
  43. Service kind                             : Complete Main
  44. Default                                  : Yes
  45. Forced                                   : No
  46. Text
  47. ID                                       : 3
  48. Format                                   : UTF-8
  49. Codec ID                                 : S_TEXT/UTF8
  50. Codec ID/Info                            : UTF-8 Plain Text
  51. Duration                                 : 1 h 59 min
  52. Bit rate                                 : 44 b/s
  53. Frame rate                               : 0.153 FPS
  54. Count of elements                        : 1093
  55. Stream size                              : 38.8 KiB (0%)
  56. Language                                 : English
  57. Default                                  : No
  58. Forced                                   : No
  59. Menu
  60. 00:00:00.000                             : en:Chapter 01
  61. 00:13:50.246                             : en:Chapter 02
  62. 00:23:07.261                             : en:Chapter 03
  63. 00:29:34.231                             : en:Chapter 04
  64. 00:33:16.828                             : en:Chapter 05
  65. 00:39:10.932                             : en:Chapter 06
  66. 00:42:41.809                             : en:Chapter 07
  67. 00:50:03.375                             : en:Chapter 08
  68. 00:59:50.837                             : en:Chapter 09
  69. 01:04:30.742                             : en:Chapter 10
  70. 01:09:38.841                             : en:Chapter 11
  71. 01:14:43.646                             : en:Chapter 12
  72. 01:27:23.071                             : en:Chapter 13
  73. 01:33:34.776                             : en:Chapter 14
  74. 01:41:07.270                             : en:Chapter 15
  75. 01:47:27.441                             : en:Chapter 16
  76. 01:55:47.941                             : en:Chapter 17
  77. 02:01:02.714                             : en:Chapter 18
  78. 02:05:47.039                             : en:Chapter 19
  79. 02:05:57.383                             : en:Chapter 20
复制代码











回复

使用道具 举报

懒得打字嘛,点击右侧快捷回复 【右侧内容,后台自定义】
您需要登录后才可以回帖 登录 | 立即加入

本版积分规则

Archiver|小黑屋| 蓝光电影网 |网站地图

Copyright © 2021 Comsenz Inc. Powered by 蓝光电影网

蓝光电影网

本站内容由用户自主分享和转载自互联网,转载目的在于传递更多信息,并不代表本网赞同其观点和对其真实性负责。

如有侵权、违反国家法律政策行为,请联系我们,我们会第一时间及时清除和处理!

举报反馈邮箱:[email protected]

快速回复 返回顶部 返回列表