找回密码

蓝光电影网

查看: 66|回复: 0

[剧情] 电影之神.Its.a.Flickering.Life.2021.JAPANESE.1080p.BluRay.x264.DTS-iKiW 11.00GB

[复制链接]
蓝光币
1084
发表于 2023-1-11 22:20:47 | 显示全部楼层 |阅读模式


◎标  题 电影之神
◎译  名 向影神祈祷 / It's A Flickering Life / Kinema no Kamisama
◎片  名 キネマの神様
◎年  代 2021
◎产  地 日本
◎类  别 剧情
◎语  言 日语
◎上映日期 2021-08-06(日本)
◎IMDb评分 6.7/10 (234人评价)
◎IMDb链接 https://www.imdb.com/title/tt15254730/
◎豆瓣评分 7.2/10 (4753人评价)
◎豆瓣链接 https://movie.douban.com/subject/34963486/
◎片  长 125分钟
◎导  演 山田洋次 Yôji Yamada
◎编  剧 山田洋次 Yôji Yamada
       朝原雄三 Yûzô Asahara
◎演  员 泽田研二 Kenji Sawada
       菅田将晖 Masaki Suda
       永野芽郁 Mei Nagano
       宫本信子 Nobuko Miyamoto
       野田洋次郎 Yôjirô Noda
       小林稔侍 Nenji Kobayashi
       寺岛忍 Shinobu Terajima
       北川景子 Keiko Kitagawa
       前田旺志郎 Oshiro Maeda
       迫田孝也 Takaya Sakoda
       志村健 Ken Shimura
       近藤公园 Kôen Kondô
       原田泰造 Taizo Harada
       前田航基 Koki Maeda
       涩川清彦 Kiyohiko Shibukawa
◎简  介
  男配角ゴウ(泽田)是一个一心痴迷电影、无意顾及家庭的人,年轻时的他(菅田将暉 饰)已经想成为导演,因而去到剧组干起副导演的活。他那时爱上了在食堂工作的女孩淑子(永野芽郁 饰),还跟放映师テラシン(野田洋次郎 饰)对电影的话题交换甚欢。当ゴウ终究等到了拍电影的机遇时,一场变乱让电影化为乌有。半个世纪曩昔后,当初的剧本再次出现,一家人的命运也迎来改变。
  1. Video
  2. ID                                       : 1
  3. Format                                   : AVC
  4. Format/Info                              : Advanced Video Codec
  5. Format profile                           : [email protected]
  6. Format settings                          : CABAC / 4 Ref Frames
  7. Format settings, CABAC                   : Yes
  8. Format settings, Reference frames        : 4 frames
  9. Codec ID                                 : V_MPEG4/ISO/AVC
  10. Duration                                 : 2 h 5 min
  11. Bit rate                                 : 11.0 Mb/s
  12. Width                                    : 1 920 pixels
  13. Height                                   : 1 038 pixels
  14. Display aspect ratio                     : 1.85:1
  15. Frame rate mode                          : Constant
  16. Frame rate                               : 23.976 (24000/1001) FPS
  17. Color space                              : YUV
  18. Chroma subsampling                       : 4:2:0
  19. Bit depth                                : 8 bits
  20. Scan type                                : Progressive
  21. Bits/(Pixel*Frame)                       : 0.231
  22. Stream size                              : 9.67 GiB (88%)
  23. Title                                    : Jubowo @ WiKi
  24. Language                                 : Japanese
  25. Default                                  : Yes
  26. Forced                                   : No
  27. Audio
  28. ID                                       : 2
  29. Format                                   : DTS
  30. Format/Info                              : Digital Theater Systems
  31. Codec ID                                 : A_DTS
  32. Duration                                 : 2 h 5 min
  33. Bit rate mode                            : Constant
  34. Bit rate                                 : 1 509 kb/s
  35. Channel(s)                               : 6 channels
  36. Channel layout                           : C L R Ls Rs LFE
  37. Sampling rate                            : 48.0 kHz
  38. Frame rate                               : 93.750 FPS (512 SPF)
  39. Bit depth                                : 24 bits
  40. Compression mode                         : Lossy
  41. Stream size                              : 1.32 GiB (12%)
  42. Language                                 : Japanese
  43. Default                                  : Yes
  44. Forced                                   : No
  45. Text
  46. ID                                       : 3
  47. Format                                   : UTF-8
  48. Codec ID                                 : S_TEXT/UTF8
  49. Codec ID/Info                            : UTF-8 Plain Text
  50. Duration                                 : 2 h 4 min
  51. Bit rate                                 : 46 b/s
  52. Frame rate                               : 0.228 FPS
  53. Count of elements                        : 1711
  54. Stream size                              : 42.6 KiB (0%)
  55. Language                                 : English
  56. Default                                  : No
  57. Forced                                   : No
  58. Menu
  59. 00:00:00.000                             : en:Chapter 01
  60. 00:14:04.427                             : en:Chapter 02
  61. 00:24:35.557                             : en:Chapter 03
  62. 00:35:46.603                             : en:Chapter 04
  63. 00:43:12.173                             : en:Chapter 05
  64. 00:48:54.557                             : en:Chapter 06
  65. 01:05:30.301                             : en:Chapter 07
  66. 01:19:38.983                             : en:Chapter 08
  67. 01:33:02.368                             : en:Chapter 09
  68. 01:43:31.288                             : en:Chapter 10
  69. 01:50:59.278                             : en:Chapter 11
  70. 02:05:21.097                             : en:Chapter 12
复制代码











回复

使用道具 举报

懒得打字嘛,点击右侧快捷回复 【右侧内容,后台自定义】
您需要登录后才可以回帖 登录 | 立即加入

本版积分规则

Archiver|小黑屋| 蓝光电影网 |网站地图

Copyright © 2021 Comsenz Inc. Powered by 蓝光电影网

蓝光电影网

本站内容由用户自主分享和转载自互联网,转载目的在于传递更多信息,并不代表本网赞同其观点和对其真实性负责。

如有侵权、违反国家法律政策行为,请联系我们,我们会第一时间及时清除和处理!

举报反馈邮箱:[email protected]

快速回复 返回顶部 返回列表