找回密码

蓝光电影网

查看: 60|回复: 1

[剧情] 日之丸灵魂~幕后的英雄~.Hinomaru.Soul.Heroes.Behind.the.Scenes.2021.JAPANESE.1080p.BluRay.x264.DTS-iKiW 9.74GB

[复制链接]
蓝光币
1084
发表于 2023-1-11 22:20:47 | 显示全部楼层 |阅读模式


◎标  题 日之丸灵魂~幕后的豪杰~
◎译  名 日丸之魂~幕后豪杰~
◎片  名 ヒノマルソウル~舞台裏の豪杰たち~
◎年  代 2021
◎产  地 日本
◎类  别 剧情
◎语  言 日语
◎上映日期 2021-06-18(日本)
◎IMDb评分 5.6/10 (20人评价)
◎IMDb链接 https://www.imdb.com/title/tt15568928/
◎豆瓣评分 6.2/10 (230人评价)
◎豆瓣链接 https://movie.douban.com/subject/34902758/
◎片  长 115分钟
◎导  演 饭塚健 Ken Iizuka
◎编  剧 铃木谦一 Ken'ichi Suzuki
       杉原宪明 Noriaki Sugihara
◎演  员 田中圭 Kei Tanaka
       土屋太凤 Tao Tsuchiya
       山田裕贵 Yûki Yamada
       真荣田乡敦 Goudon Maeda
       小坂菜绪 Nao Kosaka
       滨津隆之 Takayuki Hamatsu
       古田新太 Arata Furuta
       八十田勇一 Yûichi Yasoda
       木村文哉 Fumiya Kimura
◎简  介
    田中圭将主演新片[日之丸灵魂~幕后的豪杰~](ヒノマルソウル~舞台裏の豪杰たち~,暂译)。影片由饭塚健([虹色时光])执导,杉原宪明([贞子])、铃木谦一(《恶党:犯罪者追踪观察 》)操刀剧本,故事报告1998年的长野冬奥会,日本获得跳台滑雪男人团体赛金牌,而在这背后,有25名试跳员冷静支持着全部团队,田中圭将饰演其中一员西方仁也。影片将于2020年1月开拍,6月上映。
  1. Video
  2. ID                                       : 1
  3. Format                                   : AVC
  4. Format/Info                              : Advanced Video Codec
  5. Format profile                           : [email protected]
  6. Format settings                          : CABAC / 4 Ref Frames
  7. Format settings, CABAC                   : Yes
  8. Format settings, Reference frames        : 4 frames
  9. Codec ID                                 : V_MPEG4/ISO/AVC
  10. Duration                                 : 1 h 55 min
  11. Bit rate                                 : 10.6 Mb/s
  12. Width                                    : 1 920 pixels
  13. Height                                   : 1 038 pixels
  14. Display aspect ratio                     : 1.85:1
  15. Frame rate mode                          : Constant
  16. Frame rate                               : 23.976 (24000/1001) FPS
  17. Color space                              : YUV
  18. Chroma subsampling                       : 4:2:0
  19. Bit depth                                : 8 bits
  20. Scan type                                : Progressive
  21. Bits/(Pixel*Frame)                       : 0.222
  22. Stream size                              : 8.52 GiB (87%)
  23. Title                                    : Jubowo @ WiKi
  24. Writing library                          : x264 core 129 r2245+704+36 8e61944 tMod+MixAQ [[email protected]:2:0 X86_64]
  25. Encoding settings                        : cabac=1 / ref=4 / deblock=1:-3:-3 / analyse=0x3:0x133 / me=umh / subme=11 / psy=1 / fade_compensate=0.00 / psy_rd=1.00:0.10 / mixed_ref=1 / me_range=64 / chroma_me=1 / trellis=2 / 8x8dct=1 / cqm=0 / deadzone=21,11 / fast_pskip=0 / chroma_qp_offset=-3 / threads=18 / lookahead_threads=3 / sliced_threads=0 / nr=0 / decimate=0 / interlaced=0 / bluray_compat=0 / constrained_intra=0 / fgo=0 / bframes=12 / b_pyramid=2 / b_adapt=2 / b_bias=0 / direct=3 / weightb=1 / open_gop=0 / weightp=2 / keyint=250 / keyint_min=23 / scenecut=40 / intra_refresh=0 / rc=2pass / mbtree=0 / bitrate=10610 / ratetol=1.0 / qcomp=0.70 / qpmin=0 / qpmax=69 / qpstep=4 / cplxblur=20.0 / qblur=0.5 / ip_ratio=1.40 / pb_ratio=1.30 / aq=1 / aq-strength=0.90 / aq-sensitivity=10.00 / aq-ifactor=1.00 / aq-pfactor=1.00 / aq-bfactor=1.00 / aq2=0
  26. Language                                 : Japanese
  27. Default                                  : Yes
  28. Forced                                   : No
  29. Audio
  30. ID                                       : 2
  31. Format                                   : DTS
  32. Format/Info                              : Digital Theater Systems
  33. Codec ID                                 : A_DTS
  34. Duration                                 : 1 h 55 min
  35. Bit rate mode                            : Constant
  36. Bit rate                                 : 1 509 kb/s
  37. Channel(s)                               : 6 channels
  38. Channel layout                           : C L R Ls Rs LFE
  39. Sampling rate                            : 48.0 kHz
  40. Frame rate                               : 93.750 FPS (512 SPF)
  41. Bit depth                                : 24 bits
  42. Compression mode                         : Lossy
  43. Stream size                              : 1.21 GiB (12%)
  44. Language                                 : Japanese
  45. Default                                  : Yes
  46. Forced                                   : No
  47. Text
  48. ID                                       : 3
  49. Format                                   : UTF-8
  50. Codec ID                                 : S_TEXT/UTF8
  51. Codec ID/Info                            : UTF-8 Plain Text
  52. Duration                                 : 1 h 54 min
  53. Bit rate                                 : 54 b/s
  54. Frame rate                               : 0.227 FPS
  55. Count of elements                        : 1561
  56. Stream size                              : 46.0 KiB (0%)
  57. Language                                 : English
  58. Default                                  : No
  59. Forced                                   : No
  60. Menu
  61. 00:00:00.000                             : Chapter 01
  62. 00:08:27.507                             : Chapter 02
  63. 00:15:48.156                             : Chapter 03
  64. 00:25:55.554                             : Chapter 04
  65. 00:39:02.632                             : Chapter 05
  66. 00:49:06.861                             : Chapter 06
  67. 00:58:36.054                             : Chapter 07
  68. 01:10:38.234                             : Chapter 08
  69. 01:18:24.241                             : Chapter 09
  70. 01:30:18.121                             : Chapter 10
  71. 01:39:54.530                             : Chapter 11
  72. 01:51:01.864                             : Chapter 12
复制代码











回复

使用道具 举报

蓝光币
168
发表于 2023-1-12 08:46:07 | 显示全部楼层
楼主发贴辛苦了,谢谢楼主分享!我觉得蓝光电影网是注册对了!
回复 支持 反对

使用道具 举报

懒得打字嘛,点击右侧快捷回复 【右侧内容,后台自定义】
您需要登录后才可以回帖 登录 | 立即加入

本版积分规则

Archiver|小黑屋| 蓝光电影网 |网站地图

Copyright © 2021 Comsenz Inc. Powered by 蓝光电影网

蓝光电影网

本站内容由用户自主分享和转载自互联网,转载目的在于传递更多信息,并不代表本网赞同其观点和对其真实性负责。

如有侵权、违反国家法律政策行为,请联系我们,我们会第一时间及时清除和处理!

举报反馈邮箱:[email protected]

快速回复 返回顶部 返回列表