找回密码

蓝光电影网

查看: 67|回复: 0

[剧情] 福尔图娜之瞳.Fortunas.Eye.2019.JAPANESE.1080p.BluRay.x264.DTS-iKiW 9.00GB

[复制链接]
蓝光币
1084
发表于 2023-1-11 22:20:48 | 显示全部楼层 |阅读模式


◎译  名 福尔图娜之瞳 / 命運之瞳(港) / Fortuna's Eye
◎片  名 フォルトゥナの瞳
◎年  代 2019
◎产  地 日本
◎类  别 剧情 / 恋爱 / 奇异
◎语  言 日语
◎上映日期 2019-02-15(日本)
◎豆瓣评星 ★★★✦☆
◎豆瓣评分 6.6/10 from 3,779 users
◎豆瓣链接 https://movie.douban.com/subject/30215029/
◎片  长 111分钟
◎导  演 三木孝浩 / Takahiro Miki
◎演  员 神木隆之介 / Ryûnosuke Kamiki | 饰 木山慎一郎
      有村架纯 / Kasumi Arimura | 饰 桐生葵
      内藤大湖 / DAIGO | 饰 宇津井和幸
      志尊淳 / Jun Shison | 饰 金田大辉
      松井爱莉 / Airi Matsui | 饰 植松真理子
      齐藤由贵 / Yuki Saitô | 饰 远藤美津子
      时任三郎 / Saburo Tokito | 饰 远藤哲也
      北村有起哉 / Yukiya Kitamura | 饰 黑川武雄
      山城琉飞 / Ruito Yamashiro | 饰 木山慎一郎童年
◎编  剧 坂口理子 / Riko Sakaguchi
      三木孝浩 / Takahiro Miki
      百田尚树 / Naoki Hyakuta
◎摄  影 山田康介 / Kosuke Yamada
◎简  介 
  年少期间家人因飞机变乱而丧生孤独长大的木山慎一郎具有了能看到接近灭亡之人身材味变通明的才能。有一天他看到他的情人桐生葵身材变得通明......
  1. Video
  2. ID : 1
  3. Format : AVC
  4. Format/Info : Advanced Video Codec
  5. Format profile : [email protected]
  6. Format settings : CABAC / 5 Ref Frames
  7. Format settings, CABAC : Yes
  8. Format settings, Reference frames : 5 frames
  9. Codec ID : V_MPEG4/ISO/AVC
  10. Duration : 1 h 50 min
  11. Bit rate : 10.1 Mb/s
  12. Width : 1 920 pixels
  13. Height : 806 pixels
  14. Display aspect ratio : 2.40:1
  15. Frame rate mode : Constant
  16. Frame rate : 23.976 (24000/1001) FPS
  17. Color space : YUV
  18. Chroma subsampling : 4:2:0
  19. Bit depth : 8 bits
  20. Scan type : Progressive
  21. Bits/(Pixel*Frame) : 0.272
  22. Stream size : 7.83 GiB (87%)
  23. Writing library : x264 core 129 r2245+704+36 8e61944 tMod+MixAQ [[email protected]:2:0 X86_64]
  24. Encoding settings : cabac=1 / ref=5 / deblock=1:-3:-3 / analyse=0x3:0x133 / me=umh / subme=11 / psy=1 / fade_compensate=0.00 / psy_rd=1.05:0.10 / mixed_ref=1 / me_range=64 / chroma_me=1 / trellis=2 / 8x8dct=1 / cqm=0 / deadzone=21,11 / fast_pskip=0 / chroma_qp_offset=-3 / threads=18 / lookahead_threads=3 / sliced_threads=0 / nr=0 / decimate=0 / interlaced=0 / bluray_compat=0 / constrained_intra=0 / fgo=0 / bframes=10 / b_pyramid=2 / b_adapt=2 / b_bias=0 / direct=3 / weightb=1 / open_gop=0 / weightp=2 / keyint=250 / keyint_min=23 / scenecut=40 / intra_refresh=0 / rc=2pass / mbtree=0 / bitrate=10100 / ratetol=1.0 / qcomp=0.70 / qpmin=0 / qpmax=69 / qpstep=4 / cplxblur=20.0 / qblur=0.5 / ip_ratio=1.40 / pb_ratio=1.30 / aq=1 / aq-strength=0.90 / aq-sensitivity=10.00 / aq-ifactor=1.00 / aq-pfactor=1.00 / aq-bfactor=1.00 / aq2=0
  25. Language : Japanese
  26. Default : Yes
  27. Forced : No
  28. Audio
  29. ID : 2
  30. Format : DTS
  31. Format/Info : Digital Theater Systems
  32. Codec ID : A_DTS
  33. Duration : 1 h 50 min
  34. Bit rate mode : Constant
  35. Bit rate : 1 509 kb/s
  36. Channel(s) : 6 channels
  37. Channel layout : C L R Ls Rs LFE
  38. Sampling rate : 48.0 kHz
  39. Frame rate : 93.750 FPS (512 SPF)
  40. Bit depth : 24 bits
  41. Compression mode : Lossy
  42. Stream size : 1.17 GiB (13%)
  43. Language : Japanese
  44. Default : Yes
  45. Forced : No
  46. Text
  47. ID : 3
  48. Format : UTF-8
  49. Codec ID : S_TEXT/UTF8
  50. Codec ID/Info : UTF-8 Plain Text
  51. Duration : 1 h 50 min
  52. Bit rate : 32 b/s
  53. Frame rate : 0.146 FPS
  54. Count of elements : 969
  55. Stream size : 26.0 KiB (0%)
  56. Language : English
  57. Default : No
  58. Forced : No
  59. Menu
  60. 00:00:00.000 : en:第 01 章
  61. 00:07:02.630 : en:第 02 章
  62. 00:18:20.057 : en:第 03 章
  63. 00:27:41.368 : en:第 04 章
  64. 00:37:53.479 : en:第 05 章
  65. 00:42:29.004 : en:第 06 章
  66. 00:49:36.598 : en:第 07 章
  67. 00:56:53.952 : en:第 08 章
  68. 01:04:11.347 : en:第 09 章
  69. 01:12:39.938 : en:第 10 章
  70. 01:22:47.587 : en:第 11 章
  71. 01:32:21.536 : en:第 12 章
  72. 01:42:32.229 : en:第 13 章
复制代码













回复

使用道具 举报

懒得打字嘛,点击右侧快捷回复 【右侧内容,后台自定义】
您需要登录后才可以回帖 登录 | 立即加入

本版积分规则

Archiver|小黑屋| 蓝光电影网 |网站地图

Copyright © 2021 Comsenz Inc. Powered by 蓝光电影网

蓝光电影网

本站内容由用户自主分享和转载自互联网,转载目的在于传递更多信息,并不代表本网赞同其观点和对其真实性负责。

如有侵权、违反国家法律政策行为,请联系我们,我们会第一时间及时清除和处理!

举报反馈邮箱:[email protected]

快速回复 返回顶部 返回列表