找回密码

蓝光电影网

查看: 59|回复: 0

[爱情] 一首小夜曲.Little.Nights.Little.Love.2019.JAPANESE.1080p.BluRay.x264.DTS-iKiW 9.74GB

[复制链接]
蓝光币
1082
发表于 2023-1-11 22:20:49 | 显示全部楼层 |阅读模式


◎标  题 一首小夜曲
◎译  名 小小夜曲(台) / Little Nights /  Little Love
◎片  名 アイネクライネ ナハトムジーク
◎年  代 2019
◎产  地 日本
◎类  别 恋爱
◎语  言 日语
◎上映日期 2019-06-18(上海电影节) / 2019-09-20(日本)
◎IMDb评分 6.2/10 (406人评价)
◎IMDb链接 https://www.imdb.com/title/tt8228906/
◎豆瓣评分 7.4/10 (5396人评价)
◎豆瓣链接 https://movie.douban.com/subject/30165542/
◎片  长 119分钟
◎导  演 今泉力哉 Rikiya Imaizumi
◎编  剧 伊坂幸太郎 Kotaro Isaka
       铃木谦一 Ken'ichi Suzuki
◎演  员 三浦春马 Haruma Miura
       多部未华子 Mikako Tabe
       矢本悠马 Yuma Yamoto
       森绘梨佳 Erika Mori
       恒松祐里 Yuri Tsunematsu
       萩原利久 Riku Hagiwara
       八木优希 Yuuki Yagi
       儿玉太智 Taichi Kodama
        Megumi
       柳忧怜 Yûrei Yanagi
       滨田麻里 Mari Hamada
       藤原季节 Kisetsu Fujiwara
       中川翼 Tsubasa Nakagawa
       伊达干生 伊達みきお
       富泽岳史 Takeshi Tomizawa
       贯地谷栞 Shihori Kanjiya
       原田泰造 Taizo Harada
       祷云母 Kirara Inori
       成田瑛基 Eiki Narita
       大下浩人 Hiroto Oshita
       月永雄太 Yûta Tsukinaga
◎简  介
  佐藤(三浦春马 饰)在一家观察公司里工作,首要工作内容就是在街上发放调盘问卷,请路人填写。这份工作并不轻易,佐藤天天都要无数次的面临路人们避之而不及的眼神,接管无数次的拒绝,不外这也在无形当中锤炼了他的心智。佐藤是一个单穿的男孩,总是空想着射中必定的恋爱,经过观察四周朋友们截然分歧的豪情状态,佐藤不竭的思考着恋爱的真理。                                    
                                一天,佐藤像平常一样在街上发放调盘问卷,明天似乎出格不顺遂,佐藤已经持续好几次被拒绝了。这时,一位身着黑衣的女子(多部未华子 饰)吸引了佐藤的留意,荣幸的是,她答应了佐藤的请求。在等女子做调盘问卷的进程中,佐藤看到女子的手上写着“洗发水”三个字,此时的他并没成心想到,这三个字居然为他开启了一段长达十年的恋爱冒险。
  1. Video
  2. ID                                       : 1
  3. Format                                   : AVC
  4. Format/Info                              : Advanced Video Codec
  5. Format profile                           : [email protected]
  6. Format settings                          : CABAC / 5 Ref Frames
  7. Format settings, CABAC                   : Yes
  8. Format settings, Reference frames        : 5 frames
  9. Codec ID                                 : V_MPEG4/ISO/AVC
  10. Duration                                 : 1 h 59 min
  11. Bit rate                                 : 10.1 Mb/s
  12. Width                                    : 1 920 pixels
  13. Height                                   : 804 pixels
  14. Display aspect ratio                     : 2.40:1
  15. Frame rate mode                          : Constant
  16. Frame rate                               : 23.976 (24000/1001) FPS
  17. Color space                              : YUV
  18. Chroma subsampling                       : 4:2:0
  19. Bit depth                                : 8 bits
  20. Scan type                                : Progressive
  21. Bits/(Pixel*Frame)                       : 0.274
  22. Stream size                              : 8.48 GiB (87%)
  23. Writing library                          : x264 core 129 r2245+704+36 8e61944 tMod+MixAQ [[email protected]:2:0 X86_64]
  24. Encoding settings                        : cabac=1 / ref=5 / deblock=1:-3:-3 / analyse=0x3:0x133 / me=umh / subme=11 / psy=1 / fade_compensate=0.00 / psy_rd=1.00:0.10 / mixed_ref=1 / me_range=32 / chroma_me=1 / trellis=2 / 8x8dct=1 / cqm=0 / deadzone=21,11 / fast_pskip=0 / chroma_qp_offset=-3 / threads=18 / lookahead_threads=3 / sliced_threads=0 / nr=0 / decimate=0 / interlaced=0 / bluray_compat=0 / constrained_intra=0 / fgo=0 / bframes=10 / b_pyramid=2 / b_adapt=2 / b_bias=0 / direct=3 / weightb=1 / open_gop=0 / weightp=2 / keyint=250 / keyint_min=23 / scenecut=40 / intra_refresh=0 / rc=2pass / mbtree=0 / bitrate=10150 / ratetol=1.0 / qcomp=0.70 / qpmin=0 / qpmax=69 / qpstep=4 / cplxblur=20.0 / qblur=0.5 / ip_ratio=1.40 / pb_ratio=1.30 / aq=1 / aq-strength=0.90 / aq-sensitivity=10.00 / aq-ifactor=1.00 / aq-pfactor=1.00 / aq-bfactor=1.00 / aq2=0
  25. Language                                 : Japanese
  26. Default                                  : Yes
  27. Forced                                   : No
  28. Audio
  29. ID                                       : 2
  30. Format                                   : DTS
  31. Format/Info                              : Digital Theater Systems
  32. Codec ID                                 : A_DTS
  33. Duration                                 : 1 h 59 min
  34. Bit rate mode                            : Constant
  35. Bit rate                                 : 1 509 kb/s
  36. Channel(s)                               : 6 channels
  37. Channel layout                           : C L R Ls Rs LFE
  38. Sampling rate                            : 48.0 kHz
  39. Frame rate                               : 93.750 FPS (512 SPF)
  40. Bit depth                                : 24 bits
  41. Compression mode                         : Lossy
  42. Stream size                              : 1.26 GiB (13%)
  43. Language                                 : Japanese
  44. Default                                  : Yes
  45. Forced                                   : No
  46. Text
  47. ID                                       : 3
  48. Format                                   : UTF-8
  49. Codec ID                                 : S_TEXT/UTF8
  50. Codec ID/Info                            : UTF-8 Plain Text
  51. Duration                                 : 1 h 59 min
  52. Bit rate                                 : 51 b/s
  53. Frame rate                               : 0.203 FPS
  54. Count of elements                        : 1453
  55. Stream size                              : 45.4 KiB (0%)
  56. Language                                 : English
  57. Default                                  : No
  58. Forced                                   : No
  59. Menu
  60. 00:00:00.000                             : en:第 01 章
  61. 00:07:52.638                             : en:第 02 章
  62. 00:16:31.824                             : en:第 03 章
  63. 00:25:20.143                             : en:第 04 章
  64. 00:35:57.154                             : en:第 05 章
  65. 00:40:14.370                             : en:第 06 章
  66. 00:45:24.221                             : en:第 07 章
  67. 00:56:29.677                             : en:第 08 章
  68. 01:08:06.916                             : en:第 09 章
  69. 01:14:02.020                             : en:第 10 章
  70. 01:20:52.973                             : en:第 11 章
  71. 01:26:36.524                             : en:第 12 章
  72. 01:32:37.843                             : en:第 13 章
  73. 01:39:02.561                             : en:第 14 章
  74. 01:44:59.334                             : en:第 15 章
  75. 01:51:34.104                             : en:第 16 章
复制代码











回复

使用道具 举报

懒得打字嘛,点击右侧快捷回复 【右侧内容,后台自定义】
您需要登录后才可以回帖 登录 | 立即加入

本版积分规则

Archiver|小黑屋| 蓝光电影网 |网站地图

Copyright © 2021 Comsenz Inc. Powered by 蓝光电影网

蓝光电影网

本站内容由用户自主分享和转载自互联网,转载目的在于传递更多信息,并不代表本网赞同其观点和对其真实性负责。

如有侵权、违反国家法律政策行为,请联系我们,我们会第一时间及时清除和处理!

举报反馈邮箱:[email protected]

快速回复 返回顶部 返回列表