找回密码

蓝光电影网

查看: 192|回复: 0

[动作] 钢铁少女:决战.Iron.Girl.Final.Wars.2019.JAPANESE.1080p.BluRay.x264.DTS-iKiW 7.95GB

[复制链接]
蓝光币
1082
发表于 2023-1-11 22:20:50 | 显示全部楼层 |阅读模式


◎标  题 钢铁少女:决战
◎译  名 钢铁女孩:最初战争(台) / Iron Girl: Final Wars
◎片  名 アイアンガール FINAL WARS
◎年  代 2019
◎产  地 日本
◎类  别 行动 / 科幻
◎语  言 日语
◎上映日期 2019-02-16(日本)
◎IMDb评分 3.9/10 (38人评价)
◎IMDb链接 https://www.imdb.com/title/tt11423700/
◎豆瓣评分 4.2/10 (302人评价)
◎豆瓣链接 https://movie.douban.com/subject/30345466/
◎片  长 90分钟
◎导  演 藤原健一 Kenichi Fujiwara
◎演  员 明日花绮罗 Kirara Asuka
       青柳尊哉 Takaya Aoyagi
       春田纯一 Jun'ichi Haruta
◎简  介
  在20XX年,日本面临着最初一场战争的危机,一个军事公司开辟的“大范围扑灭性超级兵器”被可骇构造夺走。同时,半机械人的克里斯·索奥托姆(Chris Saotome)被转换为杀戮兵器,碰到了一个名叫萨拉的奥秘女孩....
  1. Video
  2. ID                                       : 1
  3. Format                                   : AVC
  4. Format/Info                              : Advanced Video Codec
  5. Format profile                           : [email protected]
  6. Format settings                          : CABAC / 4 Ref Frames
  7. Format settings, CABAC                   : Yes
  8. Format settings, Reference frames        : 4 frames
  9. Codec ID                                 : V_MPEG4/ISO/AVC
  10. Duration                                 : 1 h 30 min
  11. Bit rate                                 : 11.0 Mb/s
  12. Width                                    : 1 920 pixels
  13. Height                                   : 1 080 pixels
  14. Display aspect ratio                     : 16:9
  15. Frame rate mode                          : Constant
  16. Frame rate                               : 23.976 (24000/1001) FPS
  17. Color space                              : YUV
  18. Chroma subsampling                       : 4:2:0
  19. Bit depth                                : 8 bits
  20. Scan type                                : Progressive
  21. Bits/(Pixel*Frame)                       : 0.222
  22. Stream size                              : 7.00 GiB (88%)
  23. Title                                    : Jubowo @ WiKi
  24. Language                                 : Japanese
  25. Default                                  : Yes
  26. Forced                                   : No
  27. Audio
  28. ID                                       : 2
  29. Format                                   : DTS
  30. Format/Info                              : Digital Theater Systems
  31. Codec ID                                 : A_DTS
  32. Duration                                 : 1 h 29 min
  33. Bit rate mode                            : Constant
  34. Bit rate                                 : 1 509 kb/s
  35. Channel(s)                               : 2 channels
  36. Channel layout                           : L R
  37. Sampling rate                            : 48.0 kHz
  38. Frame rate                               : 93.750 FPS (512 SPF)
  39. Bit depth                                : 24 bits
  40. Compression mode                         : Lossy
  41. Stream size                              : 964 MiB (12%)
  42. Language                                 : Japanese
  43. Default                                  : Yes
  44. Forced                                   : No
  45. Text
  46. ID                                       : 3
  47. Format                                   : UTF-8
  48. Codec ID                                 : S_TEXT/UTF8
  49. Codec ID/Info                            : UTF-8 Plain Text
  50. Duration                                 : 1 h 26 min
  51. Bit rate                                 : 27 b/s
  52. Frame rate                               : 0.147 FPS
  53. Count of elements                        : 763
  54. Stream size                              : 17.7 KiB (0%)
  55. Language                                 : English
  56. Default                                  : No
  57. Forced                                   : No
  58. Menu
  59. 00:00:00.000                             : en:Chapter 01
  60. 00:05:02.511                             : en:Chapter 02
  61. 00:18:41.620                             : en:Chapter 03
  62. 00:29:05.619                             : en:Chapter 04
  63. 00:40:54.160                             : en:Chapter 05
  64. 00:52:06.540                             : en:Chapter 06
  65. 01:01:31.062                             : en:Chapter 07
  66. 01:06:48.254                             : en:Chapter 08
  67. 01:14:27.088                             : en:Chapter 09
  68. 01:24:25.769                             : en:Chapter 10
  69. 01:27:15.814                             : en:Chapter 11
  70. 01:28:45.362                             : en:Chapter 12
  71. 01:29:17.143                             : en:Chapter 13
  72. 01:30:45.982                             : en:Chapter 14
复制代码











回复

使用道具 举报

懒得打字嘛,点击右侧快捷回复 【右侧内容,后台自定义】
您需要登录后才可以回帖 登录 | 立即加入

本版积分规则

Archiver|小黑屋| 蓝光电影网 |网站地图

Copyright © 2021 Comsenz Inc. Powered by 蓝光电影网

蓝光电影网

本站内容由用户自主分享和转载自互联网,转载目的在于传递更多信息,并不代表本网赞同其观点和对其真实性负责。

如有侵权、违反国家法律政策行为,请联系我们,我们会第一时间及时清除和处理!

举报反馈邮箱:[email protected]

快速回复 返回顶部 返回列表