找回密码

蓝光电影网

查看: 56|回复: 0

[剧情] 羊与钢的森林.The.Forest.of.Wool.and.Steel.2018.JAPANESE.1080p.BluRay.x264.DD5.1-iKiW 11.00GB

[复制链接]
蓝光币
1084
发表于 2023-1-11 22:20:50 | 显示全部楼层 |阅读模式


◎标  题 羊与钢的森林
◎译  名 羊与钢之森 / The Forest of Wool and Steel
◎片  名 羊と鋼の森
◎年  代 2018
◎产  地 日本
◎类  别 剧情
◎语  言 日语
◎上映日期 2018-06-08(日本)
◎IMDb评分 6.2/10 (204人评价)
◎IMDb链接 https://www.imdb.com/title/tt6340698/
◎豆瓣评分 7.0/10 (2403人评价)
◎豆瓣链接 https://movie.douban.com/subject/26882230/
◎片  长 134分钟
◎导  演 桥本光二郎 Kojiro Hashimoto
◎编  剧 金子亚里纱 Arisa Kaneko
◎演  员 山崎圣人 Kento Yamazaki
       铃木亮平 Ryohei Suzuki
       上白石萌音 Mone Kamishiraishi
       上白石萌歌 Moka Kamishiraishi
       仲里依纱 Riisa Naka
       城田优 Yuu Shirota
       森永悠希 Yuki Morinaga
       佐野勇斗 Sano Hayato
       堀内敬子 Keiko Horiuchi
       光石研 Ken Mitsuishi
       吉行和子 Kazuko Yoshiyuki
       三浦友和 Tomokazu Miura
◎简  介
    住在北海道的仆人公・外村直樹(山崎賢人)和高中钢琴的调音师・板鳥宗一郎(三浦友和)相遇起头。在板鳥调音后的钢琴音色中外村恍如感遭到了森林的气味,为这个工作以及调音师的天下所吸引而起头在板鳥地点的乐器店工作。 因钢琴而联系到一路的人们中,他还碰到了高中生钢琴姐妹和音和由仁 ……。履历了懊恼,苍茫,挫折后长大的青年钢琴调音师的故事。
  1. Video
  2. ID                                       : 1
  3. Format                                   : AVC
  4. Format/Info                              : Advanced Video Codec
  5. Format profile                           : [email protected]
  6. Format settings                          : CABAC / 5 Ref Frames
  7. Format settings, CABAC                   : Yes
  8. Format settings, Reference frames        : 5 frames
  9. Codec ID                                 : V_MPEG4/ISO/AVC
  10. Duration                                 : 2 h 13 min
  11. Bit rate                                 : 11.1 Mb/s
  12. Width                                    : 1 920 pixels
  13. Height                                   : 806 pixels
  14. Display aspect ratio                     : 2.40:1
  15. Frame rate mode                          : Constant
  16. Frame rate                               : 23.976 (24000/1001) FPS
  17. Color space                              : YUV
  18. Chroma subsampling                       : 4:2:0
  19. Bit depth                                : 8 bits
  20. Scan type                                : Progressive
  21. Bits/(Pixel*Frame)                       : 0.300
  22. Stream size                              : 10.4 GiB (94%)
  23. Writing library                          : x264 core 129 r2245+704+36 8e61944 tMod+MixAQ [[email protected]:2:0 X86_64]
  24. Encoding settings                        : cabac=1 / ref=5 / deblock=1:-3:-3 / analyse=0x3:0x133 / me=umh / subme=11 / psy=1 / fade_compensate=0.00 / psy_rd=1.05:0.10 / mixed_ref=1 / me_range=32 / chroma_me=1 / trellis=2 / 8x8dct=1 / cqm=0 / deadzone=21,11 / fast_pskip=0 / chroma_qp_offset=-3 / threads=18 / lookahead_threads=3 / sliced_threads=0 / nr=0 / decimate=0 / interlaced=0 / bluray_compat=0 / constrained_intra=0 / fgo=0 / bframes=10 / b_pyramid=2 / b_adapt=2 / b_bias=0 / direct=3 / weightb=1 / open_gop=0 / weightp=2 / keyint=250 / keyint_min=23 / scenecut=40 / intra_refresh=0 / rc=2pass / mbtree=0 / bitrate=11116 / ratetol=1.0 / qcomp=0.70 / qpmin=0 / qpmax=69 / qpstep=4 / cplxblur=20.0 / qblur=0.5 / ip_ratio=1.40 / pb_ratio=1.30 / aq=1 / aq-strength=0.90 / aq-sensitivity=10.00 / aq-ifactor=1.00 / aq-pfactor=1.00 / aq-bfactor=1.00 / aq2=0
  25. Language                                 : Japanese
  26. Default                                  : Yes
  27. Forced                                   : No
  28. Audio
  29. ID                                       : 2
  30. Format                                   : AC-3
  31. Format/Info                              : Audio Coding 3
  32. Commercial name                          : Dolby Digital
  33. Codec ID                                 : A_AC3
  34. Duration                                 : 2 h 13 min
  35. Bit rate mode                            : Constant
  36. Bit rate                                 : 640 kb/s
  37. Channel(s)                               : 6 channels
  38. Channel layout                           : L R C LFE Ls Rs
  39. Sampling rate                            : 48.0 kHz
  40. Frame rate                               : 31.250 FPS (1536 SPF)
  41. Compression mode                         : Lossy
  42. Stream size                              : 613 MiB (5%)
  43. Language                                 : Japanese
  44. Service kind                             : Complete Main
  45. Default                                  : Yes
  46. Forced                                   : No
  47. Text
  48. ID                                       : 3
  49. Format                                   : UTF-8
  50. Codec ID                                 : S_TEXT/UTF8
  51. Codec ID/Info                            : UTF-8 Plain Text
  52. Duration                                 : 2 h 8 min
  53. Bit rate                                 : 24 b/s
  54. Frame rate                               : 0.099 FPS
  55. Count of elements                        : 763
  56. Stream size                              : 22.9 KiB (0%)
  57. Language                                 : English
  58. Default                                  : No
  59. Forced                                   : No
  60. Menu
  61. 00:00:00.000                             : en:第 01 章
  62. 00:08:07.904                             : en:第 02 章
  63. 00:16:26.360                             : en:第 03 章
  64. 00:26:01.351                             : en:第 04 章
  65. 00:31:53.911                             : en:第 05 章
  66. 00:39:11.849                             : en:第 06 章
  67. 00:46:39.838                             : en:第 07 章
  68. 00:57:24.023                             : en:第 08 章
  69. 01:10:45.616                             : en:第 09 章
  70. 01:20:28.240                             : en:第 10 章
  71. 01:29:33.367                             : en:第 11 章
  72. 01:37:36.475                             : en:第 12 章
  73. 01:44:30.972                             : en:第 13 章
  74. 01:56:32.985                             : en:第 14 章
  75. 02:05:12.212                             : en:第 15 章
  76. 02:08:38.710                             : en:第 16 章
  77. 02:13:51.022                             : en:第 17 章
复制代码











回复

使用道具 举报

懒得打字嘛,点击右侧快捷回复 【右侧内容,后台自定义】
您需要登录后才可以回帖 登录 | 立即加入

本版积分规则

Archiver|小黑屋| 蓝光电影网 |网站地图

Copyright © 2021 Comsenz Inc. Powered by 蓝光电影网

蓝光电影网

本站内容由用户自主分享和转载自互联网,转载目的在于传递更多信息,并不代表本网赞同其观点和对其真实性负责。

如有侵权、违反国家法律政策行为,请联系我们,我们会第一时间及时清除和处理!

举报反馈邮箱:[email protected]

快速回复 返回顶部 返回列表