找回密码

蓝光电影网

查看: 89|回复: 2

[剧情] 光荣岁月.Days.of.Glory.2006.FRENCH.1080p.BluRay.x264.DTS-NOGRP 14.26GB

[复制链接]
蓝光币
1084
发表于 2023-1-11 22:20:51 | 显示全部楼层 |阅读模式


◎标  题 名誉光阴
◎译  名 光荣日 / بلديون / Days of Glory
◎片  名 Indigènes
◎年  代 2006
◎产  地 法国 / 比利时
◎类  别 剧情 / 战争
◎语  言 法语 / 阿拉伯语
◎上映日期 2006年9月27日
◎IMDb评分 7.0/10 (14353人评价)
◎IMDb链接 https://www.imdb.com/title/tt0444182/
◎豆瓣评分 7.7/10 (6151人评价)
◎豆瓣链接 https://movie.douban.com/subject/1786231/
◎片  长 123 分钟
◎导  演 拉契得·波查拉
◎编  剧 拉契得·波查拉
       奥利维尔·洛雷勒
◎演  员 贾梅尔·杜布兹
       萨米·纳塞利
       罗什迪·泽姆
       塞米·鲍亚吉拉
       伯纳德·布兰卡恩
       马修·西蒙奈特
       阿萨德·包伯
       贝诺提·吉欧斯
       梅拉尼·罗兰
       安托万·夏佩
       奥雷莉·埃尔特韦特
       托马斯·朗曼
       蒂博·德·蒙塔朗贝尔
       Dioucounda Koma
       Philippe Beglia
       Momo Debbouze
       Abdelkim Bouchareb
       Abdelhamid Idjaini
       Abdeslam Arbaoui
       朱莉·德博纳
       Othman Ilyassa
       Mohamed Nesrate
◎简  介
  1944年至1945二战时代,一群阿尔及利亚的伊斯兰教小伙子应召参军,被编入法国军队,加入对德国的还击战。阿布戴卡德( 罗舍迪·泽姆 Roschdy Zem饰)因经过军事理论考试而被授与下士军衔,在下级号令下率领同乡的弟兄们编进严厉的马丁尼兹中士(伯纳德·布兰肯 Bernard Blancan 饰)的队伍中。在初次练习中,矮小伙萨义德(贾梅尔·杜布兹 Jamel Debbouze 饰)在应对中士投手雷的考查时几乎酿成大祸,幸亏中士脱手灵敏,反应神速,才让这批新兵幸免于难。在战役中,这些新兵表示神勇,出格是下士,中士对他另眼相看。午饭时,出于对非洲兵士的轻视,食品分派极为不公,为了各类族兵士权益,下士不惜以下犯上,贸然顶撞了中士,两人能否就此结下私人恩怨?非洲兵士们的命运又何去何从?
  1. Video
  2. ID                                       : 1
  3. Format                                   : AVC
  4. Format/Info                              : Advanced Video Codec
  5. Format profile                           : [email protected]
  6. Format settings                          : CABAC / 5 Ref Frames
  7. Format settings, CABAC                   : Yes
  8. Format settings, Reference frames        : 5 frames
  9. Codec ID                                 : V_MPEG4/ISO/AVC
  10. Duration                                 : 2 h 3 min
  11. Bit rate                                 : 15.0 Mb/s
  12. Width                                    : 1 916 pixels
  13. Height                                   : 816 pixels
  14. Display aspect ratio                     : 2.35:1
  15. Frame rate mode                          : Constant
  16. Frame rate                               : 24.000 FPS
  17. Color space                              : YUV
  18. Chroma subsampling                       : 4:2:0
  19. Bit depth                                : 8 bits
  20. Scan type                                : Progressive
  21. Bits/(Pixel*Frame)                       : 0.400
  22. Stream size                              : 12.9 GiB (91%)
  23. Title                                    : ==
  24. Writing library                          : x264 core 164 r3065 ae03d92
  25. Encoding settings                        : cabac=1 / ref=5 / deblock=1:0:0 / analyse=0x3:0x113 / me=hex / subme=8 / psy=1 / psy_rd=1.00:0.00 / mixed_ref=1 / me_range=16 / chroma_me=1 / trellis=2 / 8x8dct=1 / cqm=0 / deadzone=21,11 / fast_pskip=1 / chroma_qp_offset=-2 / threads=12 / lookahead_threads=2 / sliced_threads=0 / nr=0 / decimate=1 / interlaced=0 / bluray_compat=0 / constrained_intra=0 / bframes=3 / b_pyramid=2 / b_adapt=1 / b_bias=0 / direct=3 / weightb=1 / open_gop=0 / weightp=2 / keyint=240 / keyint_min=24 / scenecut=40 / intra_refresh=0 / rc_lookahead=50 / rc=2pass / mbtree=1 / bitrate=15000 / ratetol=1.0 / qcomp=0.60 / qpmin=0 / qpmax=69 / qpstep=4 / cplxblur=20.0 / qblur=0.5 / vbv_maxrate=62500 / vbv_bufsize=78125 / nal_hrd=none / filler=0 / ip_ratio=1.40 / aq=1:1.00
  26. Language                                 : French
  27. Default                                  : Yes
  28. Forced                                   : No
  29. Color range                              : Limited
  30. Color primaries                          : BT.709
  31. Transfer characteristics                 : BT.709
  32. Matrix coefficients                      : BT.709
  33. Audio
  34. ID                                       : 2
  35. Format                                   : DTS
  36. Format/Info                              : Digital Theater Systems
  37. Codec ID                                 : A_DTS
  38. Duration                                 : 2 h 3 min
  39. Bit rate mode                            : Constant
  40. Bit rate                                 : 1 509 kb/s
  41. Channel(s)                               : 6 channels
  42. Channel layout                           : C L R Ls Rs LFE
  43. Sampling rate                            : 48.0 kHz
  44. Frame rate                               : 93.750 FPS (512 SPF)
  45. Bit depth                                : 24 bits
  46. Compression mode                         : Lossy
  47. Stream size                              : 1.30 GiB (9%)
  48. Title                                    : ==
  49. Language                                 : French
  50. Default                                  : Yes
  51. Forced                                   : No
  52. Text #1
  53. ID                                       : 3
  54. Format                                   : UTF-8
  55. Codec ID                                 : S_TEXT/UTF8
  56. Codec ID/Info                            : UTF-8 Plain Text
  57. Duration                                 : 1 h 56 min
  58. Bit rate                                 : 22 b/s
  59. Frame rate                               : 0.111 FPS
  60. Count of elements                        : 777
  61. Stream size                              : 18.9 KiB (0%)
  62. Language                                 : English
  63. Default                                  : Yes
  64. Forced                                   : No
  65. Text #2
  66. ID                                       : 4
  67. Format                                   : PGS
  68. Muxing mode                              : zlib
  69. Codec ID                                 : S_HDMV/PGS
  70. Codec ID/Info                            : Picture based subtitle format used on BDs/HD-DVDs
  71. Duration                                 : 1 h 56 min
  72. Bit rate                                 : 9 830 b/s
  73. Frame rate                               : 0.225 FPS
  74. Count of elements                        : 1574
  75. Stream size                              : 8.18 MiB (0%)
  76. Language                                 : English
  77. Default                                  : No
  78. Forced                                   : No
  79. Menu
  80. 00:00:00.000                             : en:Chapter 1
  81. 00:11:48.750                             : en:Chapter 2
  82. 00:20:41.000                             : en:Chapter 3
  83. 00:27:01.417                             : en:Chapter 4
  84. 00:32:34.375                             : en:Chapter 5
  85. 00:44:56.625                             : en:Chapter 6
  86. 01:01:49.250                             : en:Chapter 7
  87. 01:30:33.000                             : en:Chapter 8
  88. 01:35:45.958                             : en:Chapter 9
  89. 01:38:27.458                             : en:Chapter 10
  90. 01:53:32.042                             : en:Chapter 11
  91. 01:58:06.667                             : en:Chapter 12
复制代码











回复

使用道具 举报

蓝光币
666
发表于 2023-1-11 22:36:15 | 显示全部楼层

我看不错噢 谢谢楼主!蓝光电影网越来越好!
回复 支持 反对

使用道具 举报

蓝光币
2
发表于 2023-1-12 20:00:47 | 显示全部楼层
非常感谢啊,下载收藏了啊,谢谢更新
回复 支持 反对

使用道具 举报

懒得打字嘛,点击右侧快捷回复 【右侧内容,后台自定义】
您需要登录后才可以回帖 登录 | 立即加入

本版积分规则

Archiver|小黑屋| 蓝光电影网 |网站地图

Copyright © 2021 Comsenz Inc. Powered by 蓝光电影网

蓝光电影网

本站内容由用户自主分享和转载自互联网,转载目的在于传递更多信息,并不代表本网赞同其观点和对其真实性负责。

如有侵权、违反国家法律政策行为,请联系我们,我们会第一时间及时清除和处理!

举报反馈邮箱:[email protected]

快速回复 返回顶部 返回列表