找回密码

蓝光电影网

查看: 91|回复: 1

[悬疑] 99.9:刑事专业律师 电影版.99.9.Criminal.Lawyer.The.Movie.2021.JAPANESE.1080p.BluRay.x264.DTS-iKiW 9.75GB

[复制链接]
蓝光币
1082
发表于 2023-1-11 22:20:52 | 显示全部楼层 |阅读模式


◎标  题 99.9:刑事专业律师 电影版
◎译  名 99.9不成能的昭雪The MOVIE / 电影版 99.9 不成能的昭雪(台)
◎片  名 99.9-刑事専門弁護士-THE MOVIE
◎年  代 2021
◎产  地 日本
◎类  别 悬疑 / 犯罪
◎语  言 日语
◎上映日期 2021-12-30(日本)
◎IMDb评分 6.7/10 (28人评价)
◎IMDb链接 https://www.imdb.com/title/tt15434284/
◎豆瓣评分 7.3/10 (537人评价)
◎豆瓣链接 https://movie.douban.com/subject/35371618/
◎片  长 120分钟
◎导  演 木村尚 Hisashi Kimura
◎编  剧 三浦骏斗 Hayato Miura
◎演  员 松本润 Jun Matsumoto
       香川照之 Teruyuki Kagawa
       杉咲花 Hana Sugisaki
       片桐仁 Jin Katagiri
       儿岛雄一 Magy
       马场园梓 Azusa Babazono
       马场彻 Toru Baba
       西岛秀俊 Hidetoshi Nishijima
       道枝骏佑 Shunsuke Michieda
       莳田彩珠 Aju Makita
       高桥克实 Katsumi Takahashi
       涩川清彦 Kiyohiko Shibukawa
       石桥莲司 Renji Ishibashi
       荣仓奈奈 Nana Eikura
       岸部一德 Ittoku Kishibe
       木村文乃 Fumino Kimura
       奥田瑛二 Eiji Okuda
       青木高尚 Munetaka Aoki
       笑福亭鹤瓶 Tsurubei Shofukutei
       映美藏良 Kurara Emi
       池田贵史 Takafumi Ikeda
       岸井雪乃 Yukino Kishii
       畑芽育 Mei Hata
◎简  介
  刑事案件的审判有罪率99.9%——在绝对不成能反转的状态中,拘泥被留下的0.1%的能够性追求究竟!                                    
                                在日本假如被起诉,99.9%会被判有罪!可是怪僻的深山大翔以为只要找出真相,纵使明净机率只要0.1%就有逆转昭雪的能够.
  1. Video
  2. ID                                       : 1
  3. Format                                   : AVC
  4. Format/Info                              : Advanced Video Codec
  5. Format profile                           : [email protected]
  6. Format settings                          : CABAC / 4 Ref Frames
  7. Format settings, CABAC                   : Yes
  8. Format settings, Reference frames        : 4 frames
  9. Codec ID                                 : V_MPEG4/ISO/AVC
  10. Duration                                 : 2 h 0 min
  11. Bit rate                                 : 10.1 Mb/s
  12. Width                                    : 1 920 pixels
  13. Height                                   : 1 038 pixels
  14. Display aspect ratio                     : 1.85:1
  15. Frame rate mode                          : Constant
  16. Frame rate                               : 23.976 (24000/1001) FPS
  17. Color space                              : YUV
  18. Chroma subsampling                       : 4:2:0
  19. Bit depth                                : 8 bits
  20. Scan type                                : Progressive
  21. Bits/(Pixel*Frame)                       : 0.211
  22. Stream size                              : 8.46 GiB (87%)
  23. Writing library                          : x264 core 164 r3094 bfc87b7
  24. Encoding settings                        : cabac=1 / ref=4 / deblock=1:-3:-3 / analyse=0x3:0x133 / me=umh / subme=11 / psy=1 / psy_rd=1.00:0.10 / mixed_ref=1 / me_range=32 / chroma_me=1 / trellis=2 / 8x8dct=1 / cqm=0 / deadzone=21,11 / fast_pskip=0 / chroma_qp_offset=-3 / threads=30 / lookahead_threads=7 / sliced_threads=0 / nr=0 / decimate=0 / interlaced=0 / bluray_compat=0 / constrained_intra=0 / bframes=12 / b_pyramid=2 / b_adapt=1 / b_bias=0 / direct=3 / weightb=1 / open_gop=0 / weightp=2 / keyint=250 / keyint_min=23 / scenecut=40 / intra_refresh=0 / rc=2pass / mbtree=0 / bitrate=10092 / ratetol=1.0 / qcomp=0.65 / qpmin=0 / qpmax=69 / qpstep=4 / cplxblur=20.0 / qblur=0.5 / ip_ratio=1.40 / pb_ratio=1.30 / aq=3:0.90
  25. Language                                 : Japanese
  26. Default                                  : Yes
  27. Forced                                   : No
  28. Audio
  29. ID                                       : 2
  30. Format                                   : DTS
  31. Format/Info                              : Digital Theater Systems
  32. Codec ID                                 : A_DTS
  33. Duration                                 : 2 h 0 min
  34. Bit rate mode                            : Constant
  35. Bit rate                                 : 1 509 kb/s
  36. Channel(s)                               : 6 channels
  37. Channel layout                           : C L R Ls Rs LFE
  38. Sampling rate                            : 48.0 kHz
  39. Frame rate                               : 93.750 FPS (512 SPF)
  40. Bit depth                                : 16 bits
  41. Compression mode                         : Lossy
  42. Stream size                              : 1.27 GiB (13%)
  43. Language                                 : Japanese
  44. Default                                  : Yes
  45. Forced                                   : No
  46. Text
  47. ID                                       : 3
  48. Format                                   : UTF-8
  49. Codec ID                                 : S_TEXT/UTF8
  50. Codec ID/Info                            : UTF-8 Plain Text
  51. Duration                                 : 1 h 59 min
  52. Bit rate                                 : 81 b/s
  53. Frame rate                               : 0.268 FPS
  54. Count of elements                        : 1918
  55. Stream size                              : 71.3 KiB (0%)
  56. Language                                 : English
  57. Default                                  : Yes
  58. Forced                                   : No
  59. Menu
  60. 00:00:00.000                             : en:Chapter 01
  61. 00:09:03.835                             : en:Chapter 02
  62. 00:19:01.098                             : en:Chapter 03
  63. 00:32:14.891                             : en:Chapter 04
  64. 00:41:31.447                             : en:Chapter 05
  65. 00:54:18.922                             : en:Chapter 06
  66. 01:04:39.959                             : en:Chapter 07
  67. 01:14:00.144                             : en:Chapter 08
  68. 01:24:54.840                             : en:Chapter 09
  69. 01:31:36.825                             : en:Chapter 10
  70. 01:47:42.998                             : en:Chapter 11
  71. 01:54:49.466                             : en:Chapter 12
复制代码











回复

使用道具 举报

蓝光币
37
发表于 2023-1-13 15:14:31 | 显示全部楼层

我看不错噢 谢谢楼主!蓝光电影网越来越好!
回复 支持 反对

使用道具 举报

懒得打字嘛,点击右侧快捷回复 【右侧内容,后台自定义】
您需要登录后才可以回帖 登录 | 立即加入

本版积分规则

Archiver|小黑屋| 蓝光电影网 |网站地图

Copyright © 2021 Comsenz Inc. Powered by 蓝光电影网

蓝光电影网

本站内容由用户自主分享和转载自互联网,转载目的在于传递更多信息,并不代表本网赞同其观点和对其真实性负责。

如有侵权、违反国家法律政策行为,请联系我们,我们会第一时间及时清除和处理!

举报反馈邮箱:[email protected]

快速回复 返回顶部 返回列表