找回密码

蓝光电影网

查看: 86|回复: 4

[剧情] 致那些得不到保护的人.In.the.Wake.2021.JAPANESE.1080p.BluRay.x264.DTS-iKiW 11.00GB

[复制链接]
蓝光币
1082
发表于 2023-1-11 22:20:53 | 显示全部楼层 |阅读模式


◎标  题 致那些得不到庇护的人
◎片  名 護られなかった者たちへ
◎年  代 2021
◎产  地 日本
◎类  别 剧情 / 犯罪
◎语  言 日语
◎上映日期 2021-10-01(日本)
◎IMDb评分 6.4/10 (235人评价)
◎IMDb链接 https://www.imdb.com/title/tt14423692/
◎豆瓣评分 6.7/10 (2472人评价)
◎豆瓣链接 https://movie.douban.com/subject/35016047/
◎片  长 134分钟
◎导  演 濑濑敬久 Takahisa Zeze
◎编  剧 林民夫 Tamio Hayashi
◎演  员 佐藤健 Takeru Satoh
       阿部宽 Hiroshi Abe
       清原果耶 Kaya Kiyohara
       林遣都 Kento Hayashi
       永山瑛太 Eita
       绪形直人 Naoto Ogata
       吉冈秀隆 Hidetaka Yoshioka
       倍赏美津子 Mitsuko Baisho
       岩松了 Ryô Iwamatsu
       波冈一喜 Kazuki Namioka
       奥贯薫 Kaoru Okunuki
       井之胁海 Kai Inowaki
       宇野祥平 Shôhei Uno
       黑田大辅 Daisuke Kuroda
       西田尚美 Naomi Nishida
       千原靖史 Seiji Chihara
       原日出子 Hideko Hara
       鹤见辰吾 Shingo Tsurumi
       三宅裕司 Yûji Miyake
       内田慈 Chika Uchida
       石井心咲 MISAKI ISHII
◎简  介
    东日本大地震9年后的宫城县,发生了连环杀人案件,在差人笘篠(阿部宽饰)的清查中,由于帮朋友而激发纵火伤人事务入狱,现在刚出狱未几的利根(佐藤健饰)成为怀疑人。在没有决议性证据的情况下,又发生了新的案件。
  1. Video
  2. ID                                       : 1
  3. Format                                   : AVC
  4. Format/Info                              : Advanced Video Codec
  5. Format profile                           : [email protected]
  6. Format settings                          : CABAC / 5 Ref Frames
  7. Format settings, CABAC                   : Yes
  8. Format settings, Reference frames        : 5 frames
  9. Codec ID                                 : V_MPEG4/ISO/AVC
  10. Duration                                 : 2 h 14 min
  11. Bit rate                                 : 10.2 Mb/s
  12. Width                                    : 1 920 pixels
  13. Height                                   : 804 pixels
  14. Display aspect ratio                     : 2.40:1
  15. Frame rate mode                          : Constant
  16. Frame rate                               : 23.976 (24000/1001) FPS
  17. Color space                              : YUV
  18. Chroma subsampling                       : 4:2:0
  19. Bit depth                                : 8 bits
  20. Scan type                                : Progressive
  21. Bits/(Pixel*Frame)                       : 0.275
  22. Stream size                              : 9.57 GiB (87%)
  23. Title                                    : Jubowo @ WiKi
  24. Writing library                          : x264 core 129 r2245+704+36 8e61944 tMod+MixAQ [[email protected]:2:0 X86_64]
  25. Encoding settings                        : cabac=1 / ref=5 / deblock=1:-3:-3 / analyse=0x3:0x133 / me=umh / subme=11 / psy=1 / fade_compensate=0.00 / psy_rd=1.00:0.10 / mixed_ref=1 / me_range=64 / chroma_me=1 / trellis=2 / 8x8dct=1 / cqm=0 / deadzone=21,11 / fast_pskip=0 / chroma_qp_offset=-3 / threads=18 / lookahead_threads=3 / sliced_threads=0 / nr=0 / decimate=0 / interlaced=0 / bluray_compat=0 / constrained_intra=0 / fgo=0 / bframes=12 / b_pyramid=2 / b_adapt=2 / b_bias=0 / direct=3 / weightb=1 / open_gop=0 / weightp=2 / keyint=250 / keyint_min=23 / scenecut=40 / intra_refresh=0 / rc=2pass / mbtree=0 / bitrate=10162 / ratetol=1.0 / qcomp=0.70 / qpmin=0 / qpmax=69 / qpstep=4 / cplxblur=20.0 / qblur=0.5 / ip_ratio=1.40 / pb_ratio=1.30 / aq=1 / aq-strength=0.90 / aq-sensitivity=10.00 / aq-ifactor=1.00 / aq-pfactor=1.00 / aq-bfactor=1.00 / aq2=0
  26. Language                                 : Japanese
  27. Default                                  : Yes
  28. Forced                                   : No
  29. Audio
  30. ID                                       : 2
  31. Format                                   : DTS
  32. Format/Info                              : Digital Theater Systems
  33. Codec ID                                 : A_DTS
  34. Duration                                 : 2 h 14 min
  35. Bit rate mode                            : Constant
  36. Bit rate                                 : 1 509 kb/s
  37. Channel(s)                               : 6 channels
  38. Channel layout                           : C L R Ls Rs LFE
  39. Sampling rate                            : 48.0 kHz
  40. Frame rate                               : 93.750 FPS (512 SPF)
  41. Bit depth                                : 24 bits
  42. Compression mode                         : Lossy
  43. Stream size                              : 1.42 GiB (13%)
  44. Language                                 : Japanese
  45. Default                                  : Yes
  46. Forced                                   : No
  47. Text
  48. ID                                       : 3
  49. Format                                   : UTF-8
  50. Codec ID                                 : S_TEXT/UTF8
  51. Codec ID/Info                            : UTF-8 Plain Text
  52. Duration                                 : 2 h 9 min
  53. Bit rate                                 : 27 b/s
  54. Frame rate                               : 0.139 FPS
  55. Count of elements                        : 1076
  56. Stream size                              : 26.1 KiB (0%)
  57. Language                                 : English
  58. Default                                  : No
  59. Forced                                   : No
  60. Menu
  61. 00:00:00.000                             : en:Chapter 01
  62. 00:19:29.919                             : en:Chapter 02
  63. 00:33:29.507                             : en:Chapter 03
  64. 00:52:40.532                             : en:Chapter 04
  65. 01:09:40.927                             : en:Chapter 05
  66. 01:25:06.184                             : en:Chapter 06
  67. 01:44:56.457                             : en:Chapter 07
  68. 02:03:00.415                             : en:Chapter 08
  69. 02:14:46.996                             : en:Chapter 09
复制代码











回复

使用道具 举报

蓝光币
254
发表于 2023-1-11 22:58:24 | 显示全部楼层
楼主发贴辛苦了,谢谢楼主分享!我觉得蓝光电影网是注册对了!
回复 支持 反对

使用道具 举报

蓝光币
78
发表于 2023-1-11 23:10:58 | 显示全部楼层

楼主太厉害了!楼主,电影应该很好看我觉得蓝光电影网真是个好地方!
回复 支持 反对

使用道具 举报

蓝光币
682
发表于 2023-1-11 23:29:59 | 显示全部楼层
谢谢分享!!!!
回复

使用道具 举报

蓝光币
22
发表于 2023-1-12 02:03:47 | 显示全部楼层

楼主太厉害了!楼主,电影应该很好看我觉得蓝光电影网真是个好地方!
回复 支持 反对

使用道具 举报

懒得打字嘛,点击右侧快捷回复 【右侧内容,后台自定义】
您需要登录后才可以回帖 登录 | 立即加入

本版积分规则

Archiver|小黑屋| 蓝光电影网 |网站地图

Copyright © 2021 Comsenz Inc. Powered by 蓝光电影网

蓝光电影网

本站内容由用户自主分享和转载自互联网,转载目的在于传递更多信息,并不代表本网赞同其观点和对其真实性负责。

如有侵权、违反国家法律政策行为,请联系我们,我们会第一时间及时清除和处理!

举报反馈邮箱:[email protected]

快速回复 返回顶部 返回列表