找回密码

蓝光电影网

查看: 97|回复: 0

[喜剧] 辉夜大小姐想让我告白:天才们的恋爱头脑战 完结篇.Kaguya-sama.Love.Is.War.Final.2021.JAPANESE.1080p.BluRay.x264.DTS-iKiW 9.76GB

[复制链接]
蓝光币
1084
发表于 2023-1-11 22:20:53 | 显示全部楼层 |阅读模式


◎标  题 辉夜巨细姐想让我广告:天赋们的恋爱脑筋战 结束篇
◎译  名 辉夜巨细姐让我想广告~天赋们的恋爱脑筋战~ Final
◎片  名 かぐや様は告らせたい ~天赋たちの恋愛頭脳戦~ ファイナル
◎年  代 2021
◎产  地 日本
◎类  别 笑剧 / 恋爱
◎语  言 日语
◎上映日期 2021-08-20(日本)
◎IMDb评分 6.7/10 (76人评价)
◎IMDb链接 https://www.imdb.com/title/tt13799986/
◎豆瓣评分 6.6/10 (1494人评价)
◎豆瓣链接 https://movie.douban.com/subject/35314433/
◎导  演 河合勇人 Hayato Kawai
◎编  剧 德永友一 Yuichi Tokunaga
◎演  员 平野紫耀 Shô Hirano
       桥本环奈 Kanna Hashimoto
       佐野勇斗 Sano Hayato
       浅川梨奈 Nana Asakawa
       影山优佳 Yuuka Kageyama
       福原遥 Haruka Fukuhara
       优太朗 Yutaro
       佐藤二朗 Jirô Satô
       堀田真由 Mayu Hotta
       高桥文哉 Takahashi Fumiya
       高岛政宏 Masahiro Takashima
       池间夏海 Natsumi Ikema
       板桥骏谷 Shunya Itabashi
       朝日奈芙季 Fuki Asahina
       松风理咲 Risaki Matsukaze
       深尾亚梦 Amu Fukao
◎简  介
    《辉夜巨细姐想让我广告》公布建造续集,第一部报告具有全国顶尖进修才能的门生会长白银与大财团的千金辉夜,为了让对方先行广告展开的恋爱脑筋高文战。
  1. Video
  2. ID                                       : 1
  3. Format                                   : AVC
  4. Format/Info                              : Advanced Video Codec
  5. Format profile                           : [email protected]
  6. Format settings                          : CABAC / 4 Ref Frames
  7. Format settings, CABAC                   : Yes
  8. Format settings, Reference frames        : 4 frames
  9. Codec ID                                 : V_MPEG4/ISO/AVC
  10. Duration                                 : 1 h 56 min
  11. Bit rate                                 : 10.5 Mb/s
  12. Width                                    : 1 920 pixels
  13. Height                                   : 1 038 pixels
  14. Display aspect ratio                     : 1.85:1
  15. Frame rate mode                          : Constant
  16. Frame rate                               : 23.976 (24000/1001) FPS
  17. Color space                              : YUV
  18. Chroma subsampling                       : 4:2:0
  19. Bit depth                                : 8 bits
  20. Scan type                                : Progressive
  21. Bits/(Pixel*Frame)                       : 0.220
  22. Stream size                              : 8.52 GiB (87%)
  23. Title                                    : Jubowo @ WiKi
  24. Language                                 : Japanese
  25. Default                                  : Yes
  26. Forced                                   : No
  27. Audio
  28. ID                                       : 2
  29. Format                                   : DTS
  30. Format/Info                              : Digital Theater Systems
  31. Codec ID                                 : A_DTS
  32. Duration                                 : 1 h 56 min
  33. Bit rate mode                            : Constant
  34. Bit rate                                 : 1 509 kb/s
  35. Channel(s)                               : 6 channels
  36. Channel layout                           : C L R Ls Rs LFE
  37. Sampling rate                            : 48.0 kHz
  38. Frame rate                               : 93.750 FPS (512 SPF)
  39. Bit depth                                : 24 bits
  40. Compression mode                         : Lossy
  41. Stream size                              : 1.22 GiB (13%)
  42. Language                                 : Japanese
  43. Default                                  : Yes
  44. Forced                                   : No
  45. Text
  46. ID                                       : 3
  47. Format                                   : UTF-8
  48. Codec ID                                 : S_TEXT/UTF8
  49. Codec ID/Info                            : UTF-8 Plain Text
  50. Duration                                 : 1 h 55 min
  51. Bit rate                                 : 63 b/s
  52. Frame rate                               : 0.260 FPS
  53. Count of elements                        : 1807
  54. Stream size                              : 54.2 KiB (0%)
  55. Language                                 : English
  56. Default                                  : Yes
  57. Forced                                   : No
  58. Menu
  59. 00:00:00.000                             : en:Chapter 01
  60. 00:01:42.644                             : en:Chapter 02
  61. 00:07:23.401                             : en:Chapter 03
  62. 00:09:29.235                             : en:Chapter 04
  63. 00:11:25.685                             : en:Chapter 05
  64. 00:14:10.391                             : en:Chapter 06
  65. 00:17:15.660                             : en:Chapter 07
  66. 00:18:56.802                             : en:Chapter 08
  67. 00:27:51.044                             : en:Chapter 09
  68. 00:34:14.844                             : en:Chapter 10
  69. 00:38:51.246                             : en:Chapter 11
  70. 00:49:33.429                             : en:Chapter 12
  71. 00:58:37.848                             : en:Chapter 13
  72. 01:01:58.381                             : en:Chapter 14
  73. 01:06:24.981                             : en:Chapter 15
  74. 01:08:18.052                             : en:Chapter 16
  75. 01:10:56.461                             : en:Chapter 17
  76. 01:15:39.368                             : en:Chapter 18
  77. 01:25:43.680                             : en:Chapter 19
  78. 01:29:33.159                             : en:Chapter 20
  79. 01:41:29.917                             : en:Chapter 21
  80. 01:52:09.723                             : en:Chapter 22
复制代码











回复

使用道具 举报

懒得打字嘛,点击右侧快捷回复 【右侧内容,后台自定义】
您需要登录后才可以回帖 登录 | 立即加入

本版积分规则

Archiver|小黑屋| 蓝光电影网 |网站地图

Copyright © 2021 Comsenz Inc. Powered by 蓝光电影网

蓝光电影网

本站内容由用户自主分享和转载自互联网,转载目的在于传递更多信息,并不代表本网赞同其观点和对其真实性负责。

如有侵权、违反国家法律政策行为,请联系我们,我们会第一时间及时清除和处理!

举报反馈邮箱:[email protected]

快速回复 返回顶部 返回列表