找回密码

蓝光电影网

查看: 90|回复: 0

[喜剧] La Dégustation.The.Tasting.2022.1080p.BluRay.x264-JustWatch 8.85GB

[复制链接]
蓝光币
1082
发表于 2023-1-12 06:05:37 | 显示全部楼层 |阅读模式


◎标  题 La Dégustation
◎译  名 The Tasting
◎年  代 2022
◎产  地 法国
◎类  别 笑剧 / 恋爱
◎语  言 法语
◎上映日期 2022-08-31(法国)
◎IMDb评分 6/10 (201人评价)
◎IMDb链接 https://www.imdb.com/title/tt14504294/
◎豆瓣链接 https://movie.douban.com/subject/35655203/
◎导  演 Ivan Calbérac Ivan Calbérac
◎编  剧 Ivan Calbérac Ivan Calbérac
◎演  员 伊莎贝尔·卡雷 Isabelle Carré
       贝尔纳·康庞 Bernard Campan
       艾瑞克维耶拉尔 Eric Viellard
       奥利维耶·克拉弗里 Olivier Claverie
       杰纳维夫·马尼奇 Geneviève Mnich
  1. Video
  2. ID                                       : 1
  3. Format                                   : AVC
  4. Format/Info                              : Advanced Video Codec
  5. Format profile                           : [email protected]
  6. Format settings                          : CABAC / 5 Ref Frames
  7. Format settings, CABAC                   : Yes
  8. Format settings, Reference frames        : 5 frames
  9. Codec ID                                 : V_MPEG4/ISO/AVC
  10. Duration                                 : 1 h 31 min
  11. Bit rate                                 : 10.2 Mb/s
  12. Width                                    : 1 920 pixels
  13. Height                                   : 804 pixels
  14. Display aspect ratio                     : 2.40:1
  15. Frame rate mode                          : Constant
  16. Frame rate                               : 24.000 FPS
  17. Color space                              : YUV
  18. Chroma subsampling                       : 4:2:0
  19. Bit depth                                : 8 bits
  20. Scan type                                : Progressive
  21. Bits/(Pixel*Frame)                       : 0.276
  22. Stream size                              : 6.56 GiB (74%)
  23. Writing library                          : x264 core 164 r3103 941cae6
  24. Encoding settings                        : cabac=1 / ref=5 / deblock=1:-3:-3 / analyse=0x3:0x133 / me=umh / subme=9 / psy=1 / psy_rd=1.00:0.00 / mixed_ref=1 / me_range=16 / chroma_me=1 / trellis=2 / 8x8dct=1 / cqm=0 / deadzone=21,11 / fast_pskip=0 / chroma_qp_offset=-2 / threads=24 / lookahead_threads=2 / sliced_threads=0 / nr=0 / decimate=0 / interlaced=0 / bluray_compat=0 / constrained_intra=0 / bframes=3 / b_pyramid=2 / b_adapt=2 / b_bias=0 / direct=3 / weightb=1 / open_gop=0 / weightp=2 / keyint=250 / keyint_min=24 / scenecut=40 / intra_refresh=0 / rc=crf / mbtree=0 / crf=18.0 / qcomp=0.60 / qpmin=0 / qpmax=69 / qpstep=4 / ip_ratio=1.40 / pb_ratio=1.30 / aq=3:1.00
  25. Language                                 : English
  26. Default                                  : Yes
  27. Forced                                   : No
  28. Color range                              : Limited
  29. Matrix coefficients                      : BT.709
  30. Audio
  31. ID                                       : 2
  32. Format                                   : DTS XLL
  33. Format/Info                              : Digital Theater Systems
  34. Commercial name                          : DTS-HD Master Audio
  35. Codec ID                                 : A_DTS
  36. Duration                                 : 1 h 31 min
  37. Bit rate mode                            : Variable
  38. Bit rate                                 : 3 534 kb/s
  39. Channel(s)                               : 6 channels
  40. Channel layout                           : C L R Ls Rs LFE
  41. Sampling rate                            : 48.0 kHz
  42. Frame rate                               : 93.750 FPS (512 SPF)
  43. Bit depth                                : 24 bits
  44. Compression mode                         : Lossless
  45. Stream size                              : 2.27 GiB (26%)
  46. Language                                 : French
  47. Default                                  : Yes
  48. Forced                                   : No
  49. Text #1
  50. ID                                       : 3
  51. Format                                   : UTF-8
  52. Codec ID                                 : S_TEXT/UTF8
  53. Codec ID/Info                            : UTF-8 Plain Text
  54. Duration                                 : 1 h 30 min
  55. Bit rate                                 : 49 b/s
  56. Count of elements                        : 1302
  57. Stream size                              : 32.6 KiB (0%)
  58. Language                                 : English
  59. Default                                  : Yes
  60. Forced                                   : Yes
  61. Text #2
  62. ID                                       : 4
  63. Format                                   : PGS
  64. Muxing mode                              : zlib
  65. Codec ID                                 : S_HDMV/PGS
  66. Codec ID/Info                            : Picture based subtitle format used on BDs/HD-DVDs
  67. Duration                                 : 1 h 30 min
  68. Bit rate                                 : 32.0 kb/s
  69. Count of elements                        : 2604
  70. Stream size                              : 20.7 MiB (0%)
  71. Language                                 : English
  72. Default                                  : No
  73. Forced                                   : No
  74. Text #3
  75. ID                                       : 5
  76. Format                                   : PGS
  77. Muxing mode                              : zlib
  78. Codec ID                                 : S_HDMV/PGS
  79. Codec ID/Info                            : Picture based subtitle format used on BDs/HD-DVDs
  80. Duration                                 : 1 h 31 min
  81. Bit rate                                 : 48.3 kb/s
  82. Count of elements                        : 3457
  83. Stream size                              : 31.6 MiB (0%)
  84. Language                                 : French
  85. Default                                  : No
  86. Forced                                   : No
  87. Menu
  88. 00:00:00.000                             : en:Chapter 01
  89. 00:09:57.500                             : en:Chapter 02
  90. 00:15:52.000                             : en:Chapter 03
  91. 00:24:35.292                             : en:Chapter 04
  92. 00:36:23.542                             : en:Chapter 05
  93. 00:42:12.500                             : en:Chapter 06
  94. 00:49:15.208                             : en:Chapter 07
  95. 00:55:20.500                             : en:Chapter 08
  96. 01:03:48.292                             : en:Chapter 09
  97. 01:11:46.708                             : en:Chapter 10
  98. 01:22:29.167                             : en:Chapter 11
  99. 01:28:03.417                             : en:Chapter 12
复制代码









回复

使用道具 举报

懒得打字嘛,点击右侧快捷回复 【右侧内容,后台自定义】
您需要登录后才可以回帖 登录 | 立即加入

本版积分规则

Archiver|小黑屋| 蓝光电影网 |网站地图

Copyright © 2021 Comsenz Inc. Powered by 蓝光电影网

蓝光电影网

本站内容由用户自主分享和转载自互联网,转载目的在于传递更多信息,并不代表本网赞同其观点和对其真实性负责。

如有侵权、违反国家法律政策行为,请联系我们,我们会第一时间及时清除和处理!

举报反馈邮箱:[email protected]

快速回复 返回顶部 返回列表