找回密码

蓝光电影网

查看: 65|回复: 0

[爱情] 手写信.Unlock.Your.Heart.2021.JAPANESE.1080p.BluRay.x264.DTS-iKiW 11.49GB

[复制链接]
蓝光币
1084
发表于 2023-1-12 06:05:42 | 显示全部楼层 |阅读模式


◎标  题 手写信
◎片  名 ひらいて
◎年  代 2021
◎产  地 日本
◎类  别 恋爱
◎语  言 日语
◎上映日期 2021-10-22(日本)
◎IMDb评分 6.9/10 (36人评价)
◎IMDb链接 https://www.imdb.com/title/tt18277086/
◎豆瓣评分 7.1/10 (1833人评价)
◎豆瓣链接 https://movie.douban.com/subject/35371249/
◎片  长 121分钟
◎导  演 首藤凛 Rin Shutô
◎编  剧 首藤凛 Rin Shutô
       绵矢莉莎 Risa Wataya
◎演  员 山田杏奈 Anna Yamada
       作间龙斗 Ryuto Sakuma
       芋生悠 Haruka Imou
       山本浩司 Hiroshi Yamamoto
       河井青叶 Aoba Kawai
       木下明里 Akari Kinoshita
       板谷由夏 Yuka Itaya
       田中美佐子 Tanaka Misako
       萩原圣人 Masato Hagiwara
◎简  介
  改編自綿矢莉莎的小說作品的電影《手寫信》由山田杏奈飾演校內很受歡迎的高中3年級學生木村愛,愛從高一開始就一向被在课堂裏冷静度過的樸素男人即若(作間龍斗)所吸引。可是,偶然看到他谨慎翼翼地讀著別人的信的樣子,於是偷那封信。寄信人是得了糖尿病的陰沉少女新藤美雪(芋生悠),愛是第一次晓得兩側苏诿孛芙煌2痪茫瑦垭[藏了自己的心情接近了美雪,於是愛、美雪和即若開始三角關係,事態朝著意想不到的偏向發展。
  1. Video
  2. ID                                       : 1
  3. Format                                   : AVC
  4. Format/Info                              : Advanced Video Codec
  5. Format profile                           : [email protected]
  6. Format settings                          : CABAC / 4 Ref Frames
  7. Format settings, CABAC                   : Yes
  8. Format settings, Reference frames        : 4 frames
  9. Codec ID                                 : V_MPEG4/ISO/AVC
  10. Duration                                 : 2 h 1 min
  11. Bit rate                                 : 12.0 Mb/s
  12. Width                                    : 1 920 pixels
  13. Height                                   : 1 036 pixels
  14. Display aspect ratio                     : 1.85:1
  15. Frame rate mode                          : Constant
  16. Frame rate                               : 23.976 (24000/1001) FPS
  17. Color space                              : YUV
  18. Chroma subsampling                       : 4:2:0
  19. Bit depth                                : 8 bits
  20. Scan type                                : Progressive
  21. Bits/(Pixel*Frame)                       : 0.252
  22. Stream size                              : 10.2 GiB (89%)
  23. Title                                    : Jubowo @ WiKi
  24. Writing library                          : x264 core 164 r3094 bfc87b7
  25. Encoding settings                        : cabac=1 / ref=4 / deblock=1:-3:-3 / analyse=0x3:0x133 / me=umh / subme=11 / psy=1 / psy_rd=1.05:0.10 / mixed_ref=1 / me_range=32 / chroma_me=1 / trellis=2 / 8x8dct=1 / cqm=0 / deadzone=21,11 / fast_pskip=0 / chroma_qp_offset=-3 / threads=30 / lookahead_threads=7 / sliced_threads=0 / nr=0 / decimate=0 / interlaced=0 / bluray_compat=0 / constrained_intra=0 / bframes=12 / b_pyramid=2 / b_adapt=1 / b_bias=0 / direct=3 / weightb=1 / open_gop=0 / weightp=2 / keyint=250 / keyint_min=23 / scenecut=40 / intra_refresh=0 / rc=2pass / mbtree=0 / bitrate=12010 / ratetol=1.0 / qcomp=0.65 / qpmin=0 / qpmax=69 / qpstep=4 / cplxblur=20.0 / qblur=0.5 / ip_ratio=1.40 / pb_ratio=1.30 / aq=3:0.90
  26. Language                                 : Japanese
  27. Default                                  : Yes
  28. Forced                                   : No
  29. Audio
  30. ID                                       : 2
  31. Format                                   : DTS
  32. Format/Info                              : Digital Theater Systems
  33. Codec ID                                 : A_DTS
  34. Duration                                 : 2 h 1 min
  35. Bit rate mode                            : Constant
  36. Bit rate                                 : 1 509 kb/s
  37. Channel(s)                               : 6 channels
  38. Channel layout                           : C L R Ls Rs LFE
  39. Sampling rate                            : 48.0 kHz
  40. Frame rate                               : 93.750 FPS (512 SPF)
  41. Bit depth                                : 24 bits
  42. Compression mode                         : Lossy
  43. Stream size                              : 1.28 GiB (11%)
  44. Language                                 : Japanese
  45. Default                                  : Yes
  46. Forced                                   : No
  47. Text
  48. ID                                       : 3
  49. Format                                   : UTF-8
  50. Codec ID                                 : S_TEXT/UTF8
  51. Codec ID/Info                            : UTF-8 Plain Text
  52. Duration                                 : 1 h 57 min
  53. Bit rate                                 : 28 b/s
  54. Frame rate                               : 0.140 FPS
  55. Count of elements                        : 982
  56. Stream size                              : 24.3 KiB (0%)
  57. Language                                 : English
  58. Default                                  : No
  59. Forced                                   : No
  60. Menu
  61. 00:00:00.000                             : en:Chapter 01
  62. 00:00:38.997                             : en:Chapter 02
  63. 00:10:37.178                             : en:Chapter 03
  64. 00:25:39.121                             : en:Chapter 04
  65. 00:34:47.627                             : en:Chapter 05
  66. 00:49:05.943                             : en:Chapter 06
  67. 00:57:27.110                             : en:Chapter 07
  68. 01:09:13.566                             : en:Chapter 08
  69. 01:20:33.537                             : en:Chapter 09
  70. 01:28:56.706                             : en:Chapter 10
  71. 01:39:28.254                             : en:Chapter 11
  72. 01:49:14.506                             : en:Chapter 12
  73. 01:58:09.082                             : en:Chapter 13
  74. 02:01:36.289                             : en:Chapter 14
复制代码











回复

使用道具 举报

懒得打字嘛,点击右侧快捷回复 【右侧内容,后台自定义】
您需要登录后才可以回帖 登录 | 立即加入

本版积分规则

Archiver|小黑屋| 蓝光电影网 |网站地图

Copyright © 2021 Comsenz Inc. Powered by 蓝光电影网

蓝光电影网

本站内容由用户自主分享和转载自互联网,转载目的在于传递更多信息,并不代表本网赞同其观点和对其真实性负责。

如有侵权、违反国家法律政策行为,请联系我们,我们会第一时间及时清除和处理!

举报反馈邮箱:[email protected]

快速回复 返回顶部 返回列表