找回密码

蓝光电影网

查看: 69|回复: 0

[剧情] 前科者.Prior.Convictions.2022.JAPANESE.1080p.BluRay.x264.DTS-iKiW 9.75GB

[复制链接]
蓝光币
1084
发表于 2023-1-12 06:05:42 | 显示全部楼层 |阅读模式


◎标  题 前科者
◎译  名 Prior Convictions
◎年  代 2022
◎产  地 日本
◎类  别 剧情
◎语  言 日语
◎上映日期 2022-01-28(日本)
◎IMDb评分 6.7/10 (43人评价)
◎IMDb链接 https://www.imdb.com/title/tt19063418/
◎豆瓣评分 6.9/10 (260人评价)
◎豆瓣链接 https://movie.douban.com/subject/35463970/
◎导  演 岸善幸 Yoshiyuki Kishi
◎编  剧 岸善幸 Yoshiyuki Kishi
       香川君子 Masahito Kagawa
◎演  员 有村架纯 Kasumi Arimura
       矶村勇斗 Hayato Isomura
       森田刚 Gô Morita
       中川雅也 Lily Franky
       木村多江 Tae Kimura
       若叶龙也 Ryuya Wakaba
       槙田雄司 Makita Sports
       石桥静河 Shizuka Ishibashi
       北村有起哉 Yukiya Kitamura
       宇野祥平 Shôhei Uno
◎简  介
  有村架纯将主演人气漫画《前科者》改编的同名电影和日剧,导演是2018年凭仗《啊,荒原》获得众多奖项的岸善幸。                                    
                                《前科者》是著名作家香川まさひと的漫画作品。 香川まさひと活跃于日本影视界,漫画界等多个范畴,电影剧本方面创作过《铰剪男》《 成婚讹诈师》《羊之木》等,而漫画方面则有《法医朝颜》等代表作。《前科者》于2018年起头连载,聚焦有过犯罪前科的人群,描写他们若何重返社会的故事。而此次有村架纯饰演的脚色是帮助这些人的庇护司,庇护司概况上是国家公务员,但实在是没有任何报酬的自愿者。                                    
                                《前科者》的电影版将于2022年上映,2021年秋天WOWOW将先行播出日剧版
  1. Video
  2. ID                                       : 1
  3. Format                                   : AVC
  4. Format/Info                              : Advanced Video Codec
  5. Format profile                           : [email protected]
  6. Format settings                          : CABAC / 4 Ref Frames
  7. Format settings, CABAC                   : Yes
  8. Format settings, Reference frames        : 4 frames
  9. Codec ID                                 : V_MPEG4/ISO/AVC
  10. Duration                                 : 2 h 13 min
  11. Bit rate                                 : 8 918 kb/s
  12. Width                                    : 1 920 pixels
  13. Height                                   : 1 036 pixels
  14. Display aspect ratio                     : 1.85:1
  15. Frame rate mode                          : Constant
  16. Frame rate                               : 23.976 (24000/1001) FPS
  17. Color space                              : YUV
  18. Chroma subsampling                       : 4:2:0
  19. Bit depth                                : 8 bits
  20. Scan type                                : Progressive
  21. Bits/(Pixel*Frame)                       : 0.187
  22. Stream size                              : 8.33 GiB (85%)
  23. Title                                    : Jubowo @ WiKi
  24. Writing library                          : x264 core 164 r3094 bfc87b7
  25. Encoding settings                        : cabac=1 / ref=4 / deblock=1:-3:-3 / analyse=0x3:0x133 / me=umh / subme=11 / psy=1 / psy_rd=1.00:0.10 / mixed_ref=1 / me_range=32 / chroma_me=1 / trellis=2 / 8x8dct=1 / cqm=0 / deadzone=21,11 / fast_pskip=0 / chroma_qp_offset=-3 / threads=30 / lookahead_threads=7 / sliced_threads=0 / nr=0 / decimate=0 / interlaced=0 / bluray_compat=0 / constrained_intra=0 / bframes=12 / b_pyramid=2 / b_adapt=1 / b_bias=0 / direct=3 / weightb=1 / open_gop=0 / weightp=2 / keyint=250 / keyint_min=23 / scenecut=40 / intra_refresh=0 / rc=2pass / mbtree=0 / bitrate=8918 / ratetol=1.0 / qcomp=0.65 / qpmin=0 / qpmax=69 / qpstep=4 / cplxblur=20.0 / qblur=0.5 / ip_ratio=1.40 / pb_ratio=1.30 / aq=3:0.90
  26. Language                                 : Japanese
  27. Default                                  : Yes
  28. Forced                                   : No
  29. Audio
  30. ID                                       : 2
  31. Format                                   : DTS
  32. Format/Info                              : Digital Theater Systems
  33. Codec ID                                 : A_DTS
  34. Duration                                 : 2 h 13 min
  35. Bit rate mode                            : Constant
  36. Bit rate                                 : 1 509 kb/s
  37. Channel(s)                               : 6 channels
  38. Channel layout                           : C L R Ls Rs LFE
  39. Sampling rate                            : 48.0 kHz
  40. Frame rate                               : 93.750 FPS (512 SPF)
  41. Bit depth                                : 24 bits
  42. Compression mode                         : Lossy
  43. Stream size                              : 1.41 GiB (14%)
  44. Language                                 : Japanese
  45. Default                                  : Yes
  46. Forced                                   : No
  47. Text
  48. ID                                       : 3
  49. Format                                   : UTF-8
  50. Codec ID                                 : S_TEXT/UTF8
  51. Codec ID/Info                            : UTF-8 Plain Text
  52. Duration                                 : 2 h 11 min
  53. Bit rate                                 : 27 b/s
  54. Frame rate                               : 0.135 FPS
  55. Count of elements                        : 1068
  56. Stream size                              : 27.0 KiB (0%)
  57. Language                                 : English
  58. Default                                  : No
  59. Forced                                   : No
  60. Menu
  61. 00:00:00.000                             : en:Chapter 01
  62. 00:18:09.630                             : en:Chapter 02
  63. 00:36:44.702                             : en:Chapter 03
  64. 00:55:04.635                             : en:Chapter 04
  65. 01:15:52.423                             : en:Chapter 05
  66. 01:48:19.535                             : en:Chapter 06
  67. 02:10:17.518                             : en:Chapter 07
复制代码











回复

使用道具 举报

懒得打字嘛,点击右侧快捷回复 【右侧内容,后台自定义】
您需要登录后才可以回帖 登录 | 立即加入

本版积分规则

Archiver|小黑屋| 蓝光电影网 |网站地图

Copyright © 2021 Comsenz Inc. Powered by 蓝光电影网

蓝光电影网

本站内容由用户自主分享和转载自互联网,转载目的在于传递更多信息,并不代表本网赞同其观点和对其真实性负责。

如有侵权、违反国家法律政策行为,请联系我们,我们会第一时间及时清除和处理!

举报反馈邮箱:[email protected]

快速回复 返回顶部 返回列表