找回密码

蓝光电影网

查看: 94|回复: 0

[剧情] 大怪兽的善后处理.What.to.Do.with.the.Dead.Kaiju.2022.JAPANESE.1080p.BluRay.x264.DD5.1-iKiW 9.75GB

[复制链接]
蓝光币
1084
发表于 2023-1-12 06:05:43 | 显示全部楼层 |阅读模式


◎标  题 大怪兽的善后处置
◎译  名 怪兽死了怎样办(台) / What to Do with the Dead Kaiju?
◎片  名 大怪獣のあとしまつ
◎年  代 2022
◎产  地 日本
◎类  别 剧情 / 笑剧 / 科幻
◎语  言 日语
◎上映日期 2022-02-04(日本)
◎IMDb评分 4.6/10 (147人评价)
◎IMDb链接 https://www.imdb.com/title/tt16245968/
◎豆瓣评分 5.2/10 (2323人评价)
◎豆瓣链接 https://movie.douban.com/subject/34984165/
◎片  长 115分钟
◎导  演 三木聪 Miki Satoshi
◎编  剧 三木聪 Miki Satoshi
◎演  员 山田凉介 Ryôsuke Yamada
       土屋太凤 Tao Tsuchiya
       滨田岳 Gaku Hamada
       小田切让 Jô Odagiri
       菊地凛子 Rinko Kikuchi
       二阶堂富美 Fumi Nikaidou
       染谷将太 Shôta Sometani
       松重丰 Yutaka Matsushige
       西田敏行 Toshiyuki Nishida
       真岛秀和 Hidekazu Mashima
       浅野堇 Sumire
       田中要次 Yôji Tanaka
       有园芳记 Yoshiki Arizono
       银粉蝶 Guin Poon Chaw
       六角精儿 Seiji Rokkaku
       布施绘里 Eri Fuse
       矢柴俊博 Toshihiro Yashiba
       岩松了 Ryô Iwamatsu
       岛田久作 Kyûsaku Shimada
       笹野高史 Takashi Sasano
◎简  介
    该电影是山田凉介时隔很久再次回归银幕的作品,此前山田凉介主演的电视剧《蝉男》收获了很不错的评价和口碑,作为日本超具人气的偶像,山田凉介在演戏方面获得了庞大的认可,这也让观众们非常的期待这部电影。该电影的女配角则是由土屋太凤出演,两人将会在剧中带来出色的合作。这也是土屋太 凤和山田凉介之间的第一次合作,让观众们很猎奇两人之间的化学反应。
  1. Video
  2. ID                                       : 1
  3. Format                                   : AVC
  4. Format/Info                              : Advanced Video Codec
  5. Format profile                           : [email protected]
  6. Format settings                          : CABAC / 4 Ref Frames
  7. Format settings, CABAC                   : Yes
  8. Format settings, Reference frames        : 4 frames
  9. Codec ID                                 : V_MPEG4/ISO/AVC
  10. Duration                                 : 1 h 55 min
  11. Bit rate                                 : 11.4 Mb/s
  12. Width                                    : 1 920 pixels
  13. Height                                   : 1 036 pixels
  14. Display aspect ratio                     : 1.85:1
  15. Frame rate mode                          : Constant
  16. Frame rate                               : 23.976 (24000/1001) FPS
  17. Color space                              : YUV
  18. Chroma subsampling                       : 4:2:0
  19. Bit depth                                : 8 bits
  20. Scan type                                : Progressive
  21. Bits/(Pixel*Frame)                       : 0.239
  22. Stream size                              : 9.23 GiB (95%)
  23. Title                                    : Jubowo @ WiKi
  24. Writing library                          : x264 core 164 r3094 bfc87b7
  25. Encoding settings                        : cabac=1 / ref=4 / deblock=1:-3:-3 / analyse=0x3:0x133 / me=umh / subme=11 / psy=1 / psy_rd=1.00:0.10 / mixed_ref=1 / me_range=32 / chroma_me=1 / trellis=2 / 8x8dct=1 / cqm=0 / deadzone=21,11 / fast_pskip=0 / chroma_qp_offset=-3 / threads=30 / lookahead_threads=7 / sliced_threads=0 / nr=0 / decimate=0 / interlaced=0 / bluray_compat=0 / constrained_intra=0 / bframes=12 / b_pyramid=2 / b_adapt=1 / b_bias=0 / direct=3 / weightb=1 / open_gop=0 / weightp=2 / keyint=250 / keyint_min=23 / scenecut=40 / intra_refresh=0 / rc=2pass / mbtree=0 / bitrate=11384 / ratetol=1.0 / qcomp=0.65 / qpmin=0 / qpmax=69 / qpstep=4 / cplxblur=20.0 / qblur=0.5 / ip_ratio=1.40 / pb_ratio=1.30 / aq=3:0.90
  26. Language                                 : Japanese
  27. Default                                  : Yes
  28. Forced                                   : No
  29. Audio
  30. ID                                       : 2
  31. Format                                   : AC-3
  32. Format/Info                              : Audio Coding 3
  33. Commercial name                          : Dolby Digital
  34. Codec ID                                 : A_AC3
  35. Duration                                 : 1 h 55 min
  36. Bit rate mode                            : Constant
  37. Bit rate                                 : 640 kb/s
  38. Channel(s)                               : 6 channels
  39. Channel layout                           : L R C LFE Ls Rs
  40. Sampling rate                            : 48.0 kHz
  41. Frame rate                               : 31.250 FPS (1536 SPF)
  42. Compression mode                         : Lossy
  43. Stream size                              : 531 MiB (5%)
  44. Language                                 : Japanese
  45. Service kind                             : Complete Main
  46. Default                                  : Yes
  47. Forced                                   : No
  48. Text
  49. ID                                       : 3
  50. Format                                   : UTF-8
  51. Codec ID                                 : S_TEXT/UTF8
  52. Codec ID/Info                            : UTF-8 Plain Text
  53. Duration                                 : 1 h 55 min
  54. Bit rate                                 : 57 b/s
  55. Frame rate                               : 0.196 FPS
  56. Count of elements                        : 1354
  57. Stream size                              : 48.9 KiB (0%)
  58. Language                                 : English
  59. Default                                  : No
  60. Forced                                   : No
  61. Menu
  62. 00:00:00.000                             : en:Chapter 01
  63. 00:06:36.980                             : en:Chapter 02
  64. 00:10:50.608                             : en:Chapter 03
  65. 00:19:05.686                             : en:Chapter 04
  66. 00:26:30.672                             : en:Chapter 05
  67. 00:37:52.020                             : en:Chapter 06
  68. 00:40:39.687                             : en:Chapter 07
  69. 00:46:28.452                             : en:Chapter 08
  70. 00:51:26.917                             : en:Chapter 09
  71. 00:55:29.576                             : en:Chapter 10
  72. 01:00:54.568                             : en:Chapter 11
  73. 01:08:00.243                             : en:Chapter 12
  74. 01:18:56.190                             : en:Chapter 13
  75. 01:27:29.661                             : en:Chapter 14
  76. 01:35:43.029                             : en:Chapter 15
  77. 01:48:53.068                             : en:Chapter 16
  78. 01:51:10.080                             : en:Chapter 17
复制代码











回复

使用道具 举报

懒得打字嘛,点击右侧快捷回复 【右侧内容,后台自定义】
您需要登录后才可以回帖 登录 | 立即加入

本版积分规则

Archiver|小黑屋| 蓝光电影网 |网站地图

Copyright © 2021 Comsenz Inc. Powered by 蓝光电影网

蓝光电影网

本站内容由用户自主分享和转载自互联网,转载目的在于传递更多信息,并不代表本网赞同其观点和对其真实性负责。

如有侵权、违反国家法律政策行为,请联系我们,我们会第一时间及时清除和处理!

举报反馈邮箱:[email protected]

快速回复 返回顶部 返回列表