找回密码

蓝光电影网

查看: 106|回复: 0

[悬疑] 四月一日灵异事件簿.XxxHolic.2022.JAPANESE.1080p.BluRay.x264.DTS-iKiW 9.75GB

[复制链接]
蓝光币
1082
发表于 2023-1-12 06:05:43 | 显示全部楼层 |阅读模式


◎标  题 四月一日灵异事务簿
◎译  名 xxxHOLiC次元魔女 / HOLiC xxxHOLiC / 次元魔女
◎片  名 ホリック xxxHOLiC
◎年  代 2022
◎产  地 日本
◎类  别 悬疑 / 奇异
◎语  言 日语
◎上映日期 2022-04-29(日本)
◎IMDb评分 5.1/10 (83人评价)
◎IMDb链接 https://www.imdb.com/title/tt16233104/
◎豆瓣链接 https://movie.douban.com/subject/35235503/
◎片  长 110分钟
◎简  介
    故事报告孤独的高中生四月一日是个能看得见魔鬼、吸引魔鬼血缘的青年。胡想希望抹去自己才能,过着正凡人生活的他,某日被一只蝴蝶吸引,踏入了不思议的空间「ミセ」,并遇上了妖艳美丽的女仆人侑子。                                                                      「我可以实现你任何愿望,但你也要支出相对的劳力作为价格。」                                                                      为了实现心愿,四月一日起头在「ミセ」工作,听凭侑子派遣。最初,在与同学百目鬼、九轩葵的关系日渐加深的同时,他们也遇上麻烦的人,并卷入超乎想像的大事务中――!
  1. Video
  2. ID                                       : 1
  3. Format                                   : AVC
  4. Format/Info                              : Advanced Video Codec
  5. Format profile                           : [email protected]
  6. Format settings                          : CABAC / 4 Ref Frames
  7. Format settings, CABAC                   : Yes
  8. Format settings, Reference frames        : 4 frames
  9. Codec ID                                 : V_MPEG4/ISO/AVC
  10. Duration                                 : 1 h 49 min
  11. Bit rate                                 : 11.2 Mb/s
  12. Width                                    : 1 920 pixels
  13. Height                                   : 1 036 pixels
  14. Display aspect ratio                     : 1.85:1
  15. Frame rate mode                          : Constant
  16. Frame rate                               : 23.976 (24000/1001) FPS
  17. Color space                              : YUV
  18. Chroma subsampling                       : 4:2:0
  19. Bit depth                                : 8 bits
  20. Scan type                                : Progressive
  21. Bits/(Pixel*Frame)                       : 0.235
  22. Stream size                              : 8.58 GiB (88%)
  23. Title                                    : Jubowo @ WiKi
  24. Writing library                          : x264 core 164 r3101 b093bbe
  25. Encoding settings                        : cabac=1 / ref=4 / deblock=1:-3:-3 / analyse=0x3:0x133 / me=umh / subme=11 / psy=1 / psy_rd=1.00:0.10 / mixed_ref=1 / me_range=32 / chroma_me=1 / trellis=2 / 8x8dct=1 / cqm=0 / deadzone=21,11 / fast_pskip=0 / chroma_qp_offset=-3 / threads=30 / lookahead_threads=7 / sliced_threads=0 / nr=0 / decimate=0 / interlaced=0 / bluray_compat=0 / constrained_intra=0 / bframes=12 / b_pyramid=2 / b_adapt=1 / b_bias=0 / direct=3 / weightb=1 / open_gop=0 / weightp=2 / keyint=250 / keyint_min=23 / scenecut=40 / intra_refresh=0 / rc=2pass / mbtree=0 / bitrate=11192 / ratetol=1.0 / qcomp=0.65 / qpmin=0 / qpmax=69 / qpstep=4 / cplxblur=20.0 / qblur=0.5 / ip_ratio=1.40 / pb_ratio=1.30 / aq=3:0.90
  26. Language                                 : Japanese
  27. Default                                  : Yes
  28. Forced                                   : No
  29. Audio
  30. ID                                       : 2
  31. Format                                   : DTS
  32. Format/Info                              : Digital Theater Systems
  33. Codec ID                                 : A_DTS
  34. Duration                                 : 1 h 49 min
  35. Bit rate mode                            : Constant
  36. Bit rate                                 : 1 509 kb/s
  37. Channel(s)                               : 6 channels
  38. Channel layout                           : C L R Ls Rs LFE
  39. Sampling rate                            : 48.0 kHz
  40. Frame rate                               : 93.750 FPS (512 SPF)
  41. Bit depth                                : 24 bits
  42. Compression mode                         : Lossy
  43. Stream size                              : 1.16 GiB (12%)
  44. Language                                 : Japanese
  45. Default                                  : Yes
  46. Forced                                   : No
  47. Text
  48. ID                                       : 3
  49. Format                                   : UTF-8
  50. Codec ID                                 : S_TEXT/UTF8
  51. Codec ID/Info                            : UTF-8 Plain Text
  52. Duration                                 : 1 h 48 min
  53. Bit rate                                 : 34 b/s
  54. Frame rate                               : 0.158 FPS
  55. Count of elements                        : 1035
  56. Stream size                              : 27.8 KiB (0%)
  57. Language                                 : English
  58. Default                                  : No
  59. Forced                                   : No
  60. Menu
  61. 00:00:00.000                             : en:Chapter 01
  62. 00:10:16.407                             : en:Chapter 02
  63. 00:18:56.594                             : en:Chapter 03
  64. 00:24:19.166                             : en:Chapter 04
  65. 00:36:09.167                             : en:Chapter 05
  66. 00:45:11.959                             : en:Chapter 06
  67. 00:54:43.030                             : en:Chapter 07
  68. 01:01:39.112                             : en:Chapter 08
  69. 01:08:50.001                             : en:Chapter 09
  70. 01:16:50.439                             : en:Chapter 10
  71. 01:35:55.291                             : en:Chapter 11
  72. 01:42:31.520                             : en:Chapter 12
  73. 01:49:46.747                             : en:Chapter 13
复制代码











回复

使用道具 举报

懒得打字嘛,点击右侧快捷回复 【右侧内容,后台自定义】
您需要登录后才可以回帖 登录 | 立即加入

本版积分规则

Archiver|小黑屋| 蓝光电影网 |网站地图

Copyright © 2021 Comsenz Inc. Powered by 蓝光电影网

蓝光电影网

本站内容由用户自主分享和转载自互联网,转载目的在于传递更多信息,并不代表本网赞同其观点和对其真实性负责。

如有侵权、违反国家法律政策行为,请联系我们,我们会第一时间及时清除和处理!

举报反馈邮箱:[email protected]

快速回复 返回顶部 返回列表