找回密码

蓝光电影网

查看: 101|回复: 0

[其他] 瑞典浩室黑手党 遗忘世界.Leave.the.World.Behind.2014.1080p.BluRay.x264.DTS-HANDJOB 9.81GB

[复制链接]
蓝光币
1082
发表于 2023-1-12 06:05:44 | 显示全部楼层 |阅读模式


◎标  题 瑞典浩室黑手党 忘记天下
◎片  名 Leave the World Behind
◎年  代 2014
◎产  地 英国
◎IMDb评分 7.7/10 (2270人评价)
◎IMDb链接 https://www.imdb.com/title/tt3288290/
◎豆瓣评分 8.9/10 (81人评价)
◎豆瓣链接 https://movie.douban.com/subject/25832983/
◎演  员 艾维奇 Avicii
◎简  介
  A music documentary following the last tour of the band Swedish House Mafia in 2012/2013, the film tells a story of friendship and huge success
  1. Video
  2. ID                                       : 1
  3. Format                                   : AVC
  4. Format/Info                              : Advanced Video Codec
  5. Format profile                           : [email protected]
  6. Format settings                          : CABAC / 5 Ref Frames
  7. Format settings, CABAC                   : Yes
  8. Format settings, Reference frames        : 5 frames
  9. Codec ID                                 : V_MPEG4/ISO/AVC
  10. Duration                                 : 1 h 35 min
  11. Bit rate                                 : 13.2 Mb/s
  12. Width                                    : 1 920 pixels
  13. Height                                   : 820 pixels
  14. Display aspect ratio                     : 2.35:1
  15. Frame rate mode                          : Constant
  16. Frame rate                               : 24.000 FPS
  17. Color space                              : YUV
  18. Chroma subsampling                       : 4:2:0
  19. Bit depth                                : 8 bits
  20. Scan type                                : Progressive
  21. Bits/(Pixel*Frame)                       : 0.350
  22. Stream size                              : 8.80 GiB (90%)
  23. Writing library                          : x264 core 148 r2708 86b7198
  24. Encoding settings                        : cabac=1 / ref=5 / deblock=1:-3:-3 / analyse=0x3:0x133 / me=umh / subme=10 / psy=1 / psy_rd=1.00:0.00 / mixed_ref=1 / me_range=32 / chroma_me=1 / trellis=2 / 8x8dct=1 / cqm=0 / deadzone=21,11 / fast_pskip=0 / chroma_qp_offset=-2 / threads=6 / lookahead_threads=1 / sliced_threads=0 / nr=0 / decimate=0 / interlaced=0 / bluray_compat=0 / constrained_intra=0 / bframes=16 / b_pyramid=2 / b_adapt=2 / b_bias=0 / direct=3 / weightb=1 / open_gop=0 / weightp=1 / keyint=240 / keyint_min=24 / scenecut=40 / intra_refresh=0 / rc_lookahead=60 / rc=crf / mbtree=0 / crf=17.0 / qcomp=0.60 / qpmin=0 / qpmax=69 / qpstep=4 / vbv_maxrate=62500 / vbv_bufsize=78125 / crf_max=0.0 / nal_hrd=none / filler=0 / ip_ratio=1.40 / pb_ratio=1.30 / aq=2:0.75
  25. Default                                  : Yes
  26. Forced                                   : No
  27. Color range                              : Limited
  28. Color primaries                          : BT.709
  29. Transfer characteristics                 : BT.709
  30. Matrix coefficients                      : BT.709
  31. Audio
  32. ID                                       : 2
  33. Format                                   : DTS
  34. Format/Info                              : Digital Theater Systems
  35. Codec ID                                 : A_DTS
  36. Duration                                 : 1 h 35 min
  37. Bit rate mode                            : Constant
  38. Bit rate                                 : 1 509 kb/s
  39. Channel(s)                               : 6 channels
  40. Channel layout                           : C L R Ls Rs LFE
  41. Sampling rate                            : 48.0 kHz
  42. Frame rate                               : 93.750 FPS (512 SPF)
  43. Bit depth                                : 24 bits
  44. Compression mode                         : Lossy
  45. Stream size                              : 1.00 GiB (10%)
  46. Language                                 : English
  47. Default                                  : Yes
  48. Forced                                   : No
  49. Text #1
  50. ID                                       : 3
  51. Format                                   : UTF-8
  52. Codec ID                                 : S_TEXT/UTF8
  53. Codec ID/Info                            : UTF-8 Plain Text
  54. Duration                                 : 1 h 22 min
  55. Bit rate                                 : 17 b/s
  56. Frame rate                               : 0.054 FPS
  57. Count of elements                        : 270
  58. Stream size                              : 10.8 KiB (0%)
  59. Language                                 : English
  60. Default                                  : No
  61. Forced                                   : No
  62. Text #2
  63. ID                                       : 4
  64. Format                                   : UTF-8
  65. Codec ID                                 : S_TEXT/UTF8
  66. Codec ID/Info                            : UTF-8 Plain Text
  67. Duration                                 : 1 h 31 min
  68. Bit rate                                 : 48 b/s
  69. Frame rate                               : 0.138 FPS
  70. Count of elements                        : 759
  71. Stream size                              : 32.4 KiB (0%)
  72. Language                                 : French
  73. Default                                  : No
  74. Forced                                   : No
  75. Text #3
  76. ID                                       : 5
  77. Format                                   : UTF-8
  78. Codec ID                                 : S_TEXT/UTF8
  79. Codec ID/Info                            : UTF-8 Plain Text
  80. Duration                                 : 1 h 31 min
  81. Bit rate                                 : 49 b/s
  82. Frame rate                               : 0.139 FPS
  83. Count of elements                        : 764
  84. Stream size                              : 33.3 KiB (0%)
  85. Language                                 : Spanish
  86. Default                                  : No
  87. Forced                                   : No
  88. Text #4
  89. ID                                       : 6
  90. Format                                   : UTF-8
  91. Codec ID                                 : S_TEXT/UTF8
  92. Codec ID/Info                            : UTF-8 Plain Text
  93. Duration                                 : 1 h 20 min
  94. Bit rate                                 : 39 b/s
  95. Frame rate                               : 0.176 FPS
  96. Count of elements                        : 846
  97. Stream size                              : 23.3 KiB (0%)
  98. Language                                 : Portuguese
  99. Default                                  : No
  100. Forced                                   : No
  101. Menu
  102. 00:00:00.000                             : Chapter 1
  103. 00:03:29.458                             : Chapter 2
  104. 00:04:18.583                             : Chapter 3
  105. 00:04:51.417                             : Chapter 4
  106. 00:05:46.833                             : Chapter 5
  107. 00:09:16.625                             : Chapter 6
  108. 00:14:25.083                             : Chapter 7
  109. 00:16:49.125                             : Chapter 8
  110. 00:22:11.542                             : Chapter 9
  111. 00:24:03.667                             : Chapter 10
  112. 00:30:29.708                             : Chapter 11
  113. 00:33:03.667                             : Chapter 12
  114. 00:42:26.667                             : Chapter 13
  115. 00:46:05.250                             : Chapter 14
  116. 00:58:30.167                             : Chapter 15
  117. 01:06:21.000                             : Chapter 16
  118. 01:08:11.042                             : Chapter 17
  119. 01:14:06.250                             : Chapter 18
  120. 01:21:23.500                             : Chapter 19
  121. 01:24:49.583                             : Chapter 20
复制代码











回复

使用道具 举报

懒得打字嘛,点击右侧快捷回复 【右侧内容,后台自定义】
您需要登录后才可以回帖 登录 | 立即加入

本版积分规则

Archiver|小黑屋| 蓝光电影网 |网站地图

Copyright © 2021 Comsenz Inc. Powered by 蓝光电影网

蓝光电影网

本站内容由用户自主分享和转载自互联网,转载目的在于传递更多信息,并不代表本网赞同其观点和对其真实性负责。

如有侵权、违反国家法律政策行为,请联系我们,我们会第一时间及时清除和处理!

举报反馈邮箱:[email protected]

快速回复 返回顶部 返回列表