找回密码

蓝光电影网

查看: 56|回复: 0

[2160p-WEB] 分手的决心.Decision.to.Leave.2022.KOREAN.2160p.WEB-DL.x265.10bit.HDR.DTS-HD.MA.TrueHD.7.1.Atmos-NOGRP 19.49GB

[复制链接]
蓝光币
1084
发表于 2023-1-12 06:16:16 | 显示全部楼层 |阅读模式


◎标  题 分手的决心
◎译  名 报复式分手 / Decision to Leave
◎片  名 헤어질 결심
◎年  代 2022
◎产  地 韩国
◎类  别 剧情 / 悬疑 / 犯罪
◎语  言 韩语 / 汉语普通话
◎上映日期 2022-05-23(戛纳电影节) / 2022-06-29(韩国)
◎IMDb评分 7.3/10 (22971人评价)
◎IMDb链接 https://www.imdb.com/title/tt12477480/
◎豆瓣评分 7.6/10 (229666人评价)
◎豆瓣链接 https://movie.douban.com/subject/35073886/
◎片  长 138分钟
◎导  演 朴赞郁 Chan-wook Park
◎编  剧 郑瑞景 Seo-kyeong Jeong
       朴赞郁 Chan-wook Park
◎演  员 汤唯 Wei Tang
       朴海日 Hae-il Park
       李贞贤 Jung-hyun Lee
       朴勇宇 Yong-woo Park
       高庚杓 Kyung-pyo Go
       金信英 Kim Sin-yeong
       郑永琡 Yeong-suk Jeong
       刘承睦 Yoo Seung-Mok
       朴正民 Jeong-min Park
       徐现宇 Seo Hyeon-woo
       郑伊书 Yi-Seo Jung
       李学周 Hak-joo Lee
       郑素利 So-ri Jung
       黄载沅 Hwang Jae-won
       刘台午 Teo Yoo
       崔代勋 Dae-hoon Choi
       高旻示 Min-si Go
       郑荷昙 Hadam Jeong
       陈庸旭 Jin Yong-wook
       朱仁英 In-yeong Joo
       权爀 Hyuk Kwon
       朴赞郁 Chan-wook Park
       李美敬 Miky Lee
       曹英沃 Yeong-wook Jo
       金智龙 Ji-yong Kim
       金尚范 Sang-bum Kim
       柳星姬 Seong-hie Ryu
       金石源 Suk-won Kim
◎简  介
  在山区观察一路谋杀案的海俊(朴海日 饰)碰到了死者的妻子瑞莱(汤唯 饰)。“我担忧他没有从山上返来,以为他终极能够会死。”瑞莱对丈夫的死没有表示出任何冲动的迹象,而且她的行为与哀痛的亲戚截然不同,警方以为她就是怀疑人。当海俊审问和监视瑞莱时,他意想到他正在逐步对她发生兴 趣。与此同时,虽然被控告犯罪,但瑞莱起头对海俊采纳大胆的行动。一个隐瞒真相的怀疑人。同时想要思疑怀疑人的侦察。他们有了分手的决议。
  1. Video
  2. ID                                       : 1
  3. Format                                   : HEVC
  4. Format/Info                              : High Efficiency Video Coding
  5. Format profile                           : Main [email protected]@Main
  6. HDR format                               : Dolby Vision, Version 1.0, dvhe.08.06, BL+RPU, HDR10 compatible / SMPTE ST 2086, HDR10 compatible
  7. Codec ID                                 : V_MPEGH/ISO/HEVC
  8. Duration                                 : 2 h 18 min
  9. Bit rate                                 : 11.7 Mb/s
  10. Width                                    : 3 840 pixels
  11. Height                                   : 2 160 pixels
  12. Display aspect ratio                     : 16:9
  13. Frame rate mode                          : Constant
  14. Frame rate                               : 24.000 FPS
  15. Color space                              : YUV
  16. Chroma subsampling                       : 4:2:0 (Type 2)
  17. Bit depth                                : 10 bits
  18. Bits/(Pixel*Frame)                       : 0.059
  19. Stream size                              : 11.3 GiB (58%)
  20. Default                                  : Yes
  21. Forced                                   : No
  22. Color range                              : Limited
  23. Color primaries                          : BT.2020
  24. Transfer characteristics                 : PQ
  25. Matrix coefficients                      : BT.2020 non-constant
  26. Mastering display color primaries        : Display P3
  27. Mastering display luminance              : min: 0.0001 cd/m2, max: 1000 cd/m2
  28. Maximum Content Light Level              : 1071 cd/m2
  29. Maximum Frame-Average Light Level        : 96 cd/m2
  30. Audio #1
  31. ID                                       : 2
  32. ID in the original source medium         : 4353 (0x1101)
  33. Format                                   : MLP FBA 16-ch
  34. Format/Info                              : Meridian Lossless Packing FBA with 16-channel presentation
  35. Commercial name                          : Dolby TrueHD with Dolby Atmos
  36. Codec ID                                 : A_TRUEHD
  37. Duration                                 : 2 h 18 min
  38. Bit rate mode                            : Variable
  39. Bit rate                                 : 4 149 kb/s
  40. Maximum bit rate                         : 7 002 kb/s
  41. Channel(s)                               : 8 channels
  42. Channel layout                           : L R C LFE Ls Rs Lb Rb
  43. Sampling rate                            : 48.0 kHz
  44. Frame rate                               : 1 200.000 FPS (40 SPF)
  45. Compression mode                         : Lossless
  46. Stream size                              : 4.01 GiB (21%)
  47. Language                                 : Korean
  48. Default                                  : Yes
  49. Forced                                   : No
  50. Original source medium                   : Blu-ray
  51. Number of dynamic objects                : 11
  52. Bed channel count                        : 1 channel
  53. Bed channel configuration                : LFE
  54. Audio #2
  55. ID                                       : 3
  56. Format                                   : DTS XLL
  57. Format/Info                              : Digital Theater Systems
  58. Commercial name                          : DTS-HD Master Audio
  59. Codec ID                                 : A_DTS
  60. Duration                                 : 2 h 18 min
  61. Bit rate mode                            : Variable
  62. Bit rate                                 : 3 843 kb/s
  63. Channel(s)                               : 8 channels
  64. Channel layout                           : C L R LFE Lb Rb Lss Rss
  65. Sampling rate                            : 48.0 kHz
  66. Frame rate                               : 93.750 FPS (512 SPF)
  67. Bit depth                                : 24 bits
  68. Compression mode                         : Lossless
  69. Stream size                              : 3.71 GiB (19%)
  70. Language                                 : Korean
  71. Default                                  : No
  72. Forced                                   : No
  73. Audio #3
  74. ID                                       : 4
  75. Format                                   : AC-3
  76. Format/Info                              : Audio Coding 3
  77. Commercial name                          : Dolby Digital
  78. Format settings                          : Dolby Surround EX
  79. Codec ID                                 : A_AC3
  80. Duration                                 : 2 h 18 min
  81. Bit rate mode                            : Constant
  82. Bit rate                                 : 384 kb/s
  83. Channel(s)                               : 6 channels
  84. Channel layout                           : L R C LFE Ls Rs
  85. Sampling rate                            : 48.0 kHz
  86. Frame rate                               : 31.250 FPS (1536 SPF)
  87. Compression mode                         : Lossy
  88. Delay relative to video                  : 30 ms
  89. Stream size                              : 380 MiB (2%)
  90. Title                                    : Compatibility Track
  91. Language                                 : Korean
  92. Service kind                             : Complete Main
  93. Default                                  : No
  94. Forced                                   : No
  95. Text #1
  96. ID                                       : 5
  97. Format                                   : UTF-8
  98. Codec ID                                 : S_TEXT/UTF8
  99. Codec ID/Info                            : UTF-8 Plain Text
  100. Duration                                 : 2 h 12 min
  101. Bit rate                                 : 44 b/s
  102. Frame rate                               : 0.147 FPS
  103. Count of elements                        : 1170
  104. Stream size                              : 42.7 KiB (0%)
  105. Language                                 : English
  106. Default                                  : Yes
  107. Forced                                   : No
  108. Text #2
  109. ID                                       : 6
  110. Format                                   : UTF-8
  111. Codec ID                                 : S_TEXT/UTF8
  112. Codec ID/Info                            : UTF-8 Plain Text
  113. Duration                                 : 1 h 9 min
  114. Bit rate                                 : 0 b/s
  115. Frame rate                               : 0.001 FPS
  116. Count of elements                        : 4
  117. Stream size                              : 67.0 Bytes (0%)
  118. Language                                 : Korean
  119. Default                                  : No
  120. Forced                                   : Yes
  121. Text #3
  122. ID                                       : 7
  123. Format                                   : UTF-8
  124. Codec ID                                 : S_TEXT/UTF8
  125. Codec ID/Info                            : UTF-8 Plain Text
  126. Duration                                 : 2 h 12 min
  127. Bit rate                                 : 44 b/s
  128. Frame rate                               : 0.169 FPS
  129. Count of elements                        : 1341
  130. Stream size                              : 43.1 KiB (0%)
  131. Language                                 : Korean
  132. Default                                  : No
  133. Forced                                   : No
  134. Text #4
  135. ID                                       : 8
  136. Format                                   : UTF-8
  137. Codec ID                                 : S_TEXT/UTF8
  138. Codec ID/Info                            : UTF-8 Plain Text
  139. Duration                                 : 2 h 16 min
  140. Bit rate                                 : 69 b/s
  141. Frame rate                               : 0.244 FPS
  142. Count of elements                        : 2006
  143. Stream size                              : 69.4 KiB (0%)
  144. Title                                    : SDH
  145. Language                                 : Korean
  146. Default                                  : No
  147. Forced                                   : No
  148. Menu
  149. 00:00:00.000                             : Chapter 01
  150. 00:07:45.333                             : Chapter 02
  151. 00:22:48.666                             : Chapter 03
  152. 00:36:58.083                             : Chapter 04
  153. 00:50:24.208                             : Chapter 05
  154. 01:01:09.958                             : Chapter 06
  155. 01:16:49.249                             : Chapter 07
  156. 01:26:14.999                             : Chapter 08
  157. 01:38:28.458                             : Chapter 09
  158. 01:54:40.791                             : Chapter 10
  159. 02:05:11.499                             : Chapter 11
  160. 02:13:06.291                             : Chapter 12
复制代码











回复

使用道具 举报

懒得打字嘛,点击右侧快捷回复 【右侧内容,后台自定义】
您需要登录后才可以回帖 登录 | 立即加入

本版积分规则

Archiver|小黑屋| 蓝光电影网 |网站地图

Copyright © 2021 Comsenz Inc. Powered by 蓝光电影网

蓝光电影网

本站内容由用户自主分享和转载自互联网,转载目的在于传递更多信息,并不代表本网赞同其观点和对其真实性负责。

如有侵权、违反国家法律政策行为,请联系我们,我们会第一时间及时清除和处理!

举报反馈邮箱:[email protected]

快速回复 返回顶部 返回列表