找回密码

蓝光电影网

查看: 111|回复: 3

[2160p-WEB] 分手的决心.Decision.to.Leave.2022.KOREAN.2160p.WEB-DL.x265.10bit.SDR.DTS-HD.MA.TrueHD.7.1.Atmos-NOGRP 19.66GB

[复制链接]
蓝光币
1084
发表于 2023-1-12 06:16:17 | 显示全部楼层 |阅读模式


◎标  题 分手的决心
◎译  名 报复式分手 / Decision to Leave
◎片  名 헤어질 결심
◎年  代 2022
◎产  地 韩国
◎类  别 剧情 / 悬疑 / 犯罪
◎语  言 韩语 / 汉语普通话
◎上映日期 2022-05-23(戛纳电影节) / 2022-06-29(韩国)
◎IMDb评分 7.3/10 (22971人评价)
◎IMDb链接 https://www.imdb.com/title/tt12477480/
◎豆瓣评分 7.6/10 (229666人评价)
◎豆瓣链接 https://movie.douban.com/subject/35073886/
◎片  长 138分钟
◎导  演 朴赞郁 Chan-wook Park
◎编  剧 郑瑞景 Seo-kyeong Jeong
       朴赞郁 Chan-wook Park
◎演  员 汤唯 Wei Tang
       朴海日 Hae-il Park
       李贞贤 Jung-hyun Lee
       朴勇宇 Yong-woo Park
       高庚杓 Kyung-pyo Go
       金信英 Kim Sin-yeong
       郑永琡 Yeong-suk Jeong
       刘承睦 Yoo Seung-Mok
       朴正民 Jeong-min Park
       徐现宇 Seo Hyeon-woo
       郑伊书 Yi-Seo Jung
       李学周 Hak-joo Lee
       郑素利 So-ri Jung
       黄载沅 Hwang Jae-won
       刘台午 Teo Yoo
       崔代勋 Dae-hoon Choi
       高旻示 Min-si Go
       郑荷昙 Hadam Jeong
       陈庸旭 Jin Yong-wook
       朱仁英 In-yeong Joo
       权爀 Hyuk Kwon
       朴赞郁 Chan-wook Park
       李美敬 Miky Lee
       曹英沃 Yeong-wook Jo
       金智龙 Ji-yong Kim
       金尚范 Sang-bum Kim
       柳星姬 Seong-hie Ryu
       金石源 Suk-won Kim
◎简  介
  在山区观察一路谋杀案的海俊(朴海日 饰)碰到了死者的妻子瑞莱(汤唯 饰)。“我担忧他没有从山上返来,以为他终极能够会死。”瑞莱对丈夫的死没有表示出任何冲动的迹象,而且她的行为与哀痛的亲戚截然不同,警方以为她就是怀疑人。当海俊审问和监视瑞莱时,他意想到他正在逐步对她发生兴 趣。与此同时,虽然被控告犯罪,但瑞莱起头对海俊采纳大胆的行动。一个隐瞒真相的怀疑人。同时想要思疑怀疑人的侦察。他们有了分手的决议。
  1. Video
  2. ID                                       : 1
  3. Format                                   : HEVC
  4. Format/Info                              : High Efficiency Video Coding
  5. Format profile                           : Main [email protected]@Main
  6. Codec ID                                 : V_MPEGH/ISO/HEVC
  7. Duration                                 : 2 h 18 min
  8. Bit rate                                 : 11.9 Mb/s
  9. Width                                    : 3 840 pixels
  10. Height                                   : 2 160 pixels
  11. Display aspect ratio                     : 16:9
  12. Frame rate mode                          : Constant
  13. Frame rate                               : 24.000 FPS
  14. Color space                              : YUV
  15. Chroma subsampling                       : 4:2:0
  16. Bit depth                                : 10 bits
  17. Bits/(Pixel*Frame)                       : 0.060
  18. Stream size                              : 11.5 GiB (58%)
  19. Default                                  : Yes
  20. Forced                                   : No
  21. Color range                              : Limited
  22. Color primaries                          : BT.709
  23. Transfer characteristics                 : BT.709
  24. Matrix coefficients                      : BT.709
  25. Audio #1
  26. ID                                       : 2
  27. ID in the original source medium         : 4353 (0x1101)
  28. Format                                   : MLP FBA 16-ch
  29. Format/Info                              : Meridian Lossless Packing FBA with 16-channel presentation
  30. Commercial name                          : Dolby TrueHD with Dolby Atmos
  31. Codec ID                                 : A_TRUEHD
  32. Duration                                 : 2 h 18 min
  33. Bit rate mode                            : Variable
  34. Bit rate                                 : 4 149 kb/s
  35. Maximum bit rate                         : 7 002 kb/s
  36. Channel(s)                               : 8 channels
  37. Channel layout                           : L R C LFE Ls Rs Lb Rb
  38. Sampling rate                            : 48.0 kHz
  39. Frame rate                               : 1 200.000 FPS (40 SPF)
  40. Compression mode                         : Lossless
  41. Stream size                              : 4.01 GiB (20%)
  42. Language                                 : Korean
  43. Default                                  : Yes
  44. Forced                                   : No
  45. Original source medium                   : Blu-ray
  46. Number of dynamic objects                : 11
  47. Bed channel count                        : 1 channel
  48. Bed channel configuration                : LFE
  49. Audio #2
  50. ID                                       : 3
  51. Format                                   : DTS XLL
  52. Format/Info                              : Digital Theater Systems
  53. Commercial name                          : DTS-HD Master Audio
  54. Codec ID                                 : A_DTS
  55. Duration                                 : 2 h 18 min
  56. Bit rate mode                            : Variable
  57. Bit rate                                 : 3 843 kb/s
  58. Channel(s)                               : 8 channels
  59. Channel layout                           : C L R LFE Lb Rb Lss Rss
  60. Sampling rate                            : 48.0 kHz
  61. Frame rate                               : 93.750 FPS (512 SPF)
  62. Bit depth                                : 24 bits
  63. Compression mode                         : Lossless
  64. Stream size                              : 3.71 GiB (19%)
  65. Language                                 : Korean
  66. Default                                  : No
  67. Forced                                   : No
  68. Audio #3
  69. ID                                       : 4
  70. Format                                   : AC-3
  71. Format/Info                              : Audio Coding 3
  72. Commercial name                          : Dolby Digital
  73. Format settings                          : Dolby Surround EX
  74. Codec ID                                 : A_AC3
  75. Duration                                 : 2 h 18 min
  76. Bit rate mode                            : Constant
  77. Bit rate                                 : 384 kb/s
  78. Channel(s)                               : 6 channels
  79. Channel layout                           : L R C LFE Ls Rs
  80. Sampling rate                            : 48.0 kHz
  81. Frame rate                               : 31.250 FPS (1536 SPF)
  82. Compression mode                         : Lossy
  83. Delay relative to video                  : 30 ms
  84. Stream size                              : 380 MiB (2%)
  85. Title                                    : Compatibility Track
  86. Language                                 : Korean
  87. Service kind                             : Complete Main
  88. Default                                  : No
  89. Forced                                   : No
  90. Text #1
  91. ID                                       : 5
  92. Format                                   : UTF-8
  93. Codec ID                                 : S_TEXT/UTF8
  94. Codec ID/Info                            : UTF-8 Plain Text
  95. Duration                                 : 2 h 12 min
  96. Bit rate                                 : 44 b/s
  97. Frame rate                               : 0.147 FPS
  98. Count of elements                        : 1170
  99. Stream size                              : 42.7 KiB (0%)
  100. Language                                 : English
  101. Default                                  : Yes
  102. Forced                                   : No
  103. Text #2
  104. ID                                       : 6
  105. Format                                   : UTF-8
  106. Codec ID                                 : S_TEXT/UTF8
  107. Codec ID/Info                            : UTF-8 Plain Text
  108. Duration                                 : 1 h 9 min
  109. Bit rate                                 : 0 b/s
  110. Frame rate                               : 0.001 FPS
  111. Count of elements                        : 4
  112. Stream size                              : 67.0 Bytes (0%)
  113. Language                                 : Korean
  114. Default                                  : No
  115. Forced                                   : Yes
  116. Text #3
  117. ID                                       : 7
  118. Format                                   : UTF-8
  119. Codec ID                                 : S_TEXT/UTF8
  120. Codec ID/Info                            : UTF-8 Plain Text
  121. Duration                                 : 2 h 12 min
  122. Bit rate                                 : 44 b/s
  123. Frame rate                               : 0.169 FPS
  124. Count of elements                        : 1341
  125. Stream size                              : 43.1 KiB (0%)
  126. Language                                 : Korean
  127. Default                                  : No
  128. Forced                                   : No
  129. Text #4
  130. ID                                       : 8
  131. Format                                   : UTF-8
  132. Codec ID                                 : S_TEXT/UTF8
  133. Codec ID/Info                            : UTF-8 Plain Text
  134. Duration                                 : 2 h 16 min
  135. Bit rate                                 : 69 b/s
  136. Frame rate                               : 0.244 FPS
  137. Count of elements                        : 2006
  138. Stream size                              : 69.4 KiB (0%)
  139. Title                                    : SDH
  140. Language                                 : Korean
  141. Default                                  : No
  142. Forced                                   : No
  143. Menu
  144. 00:00:00.000                             : Chapter 01
  145. 00:07:45.333                             : Chapter 02
  146. 00:22:48.666                             : Chapter 03
  147. 00:36:58.083                             : Chapter 04
  148. 00:50:24.208                             : Chapter 05
  149. 01:01:09.958                             : Chapter 06
  150. 01:16:49.249                             : Chapter 07
  151. 01:26:14.999                             : Chapter 08
  152. 01:38:28.458                             : Chapter 09
  153. 01:54:40.791                             : Chapter 10
  154. 02:05:11.499                             : Chapter 11
  155. 02:13:06.291                             : Chapter 12
复制代码











回复

使用道具 举报

蓝光币
2
发表于 2023-1-12 10:18:15 | 显示全部楼层
感谢楼主分享资源,棒棒哒
回复 支持 反对

使用道具 举报

蓝光币
8
发表于 2023-1-12 16:17:05 | 显示全部楼层

楼主太厉害了!楼主,电影应该很好看我觉得蓝光电影网真是个好地方!
回复 支持 反对

使用道具 举报

蓝光币
33
发表于 2023-1-14 06:47:09 | 显示全部楼层
支持楼主无私分享
回复 支持 反对

使用道具 举报

懒得打字嘛,点击右侧快捷回复 【右侧内容,后台自定义】
您需要登录后才可以回帖 登录 | 立即加入

本版积分规则

Archiver|小黑屋| 蓝光电影网 |网站地图

Copyright © 2021 Comsenz Inc. Powered by 蓝光电影网

蓝光电影网

本站内容由用户自主分享和转载自互联网,转载目的在于传递更多信息,并不代表本网赞同其观点和对其真实性负责。

如有侵权、违反国家法律政策行为,请联系我们,我们会第一时间及时清除和处理!

举报反馈邮箱:[email protected]

快速回复 返回顶部 返回列表