找回密码

蓝光电影网

查看: 99|回复: 3

[剧情] 零的焦点.Zero.Focus.2009.JAPANESE.1080p.BluRay.x264.DD5.1-iKiW 12.00GB

[复制链接]
蓝光币
1078
发表于 2023-1-12 08:10:37 | 显示全部楼层 |阅读模式


◎标  题 零的焦点
◎译  名 Zero Focus
◎片  名 ゼロの焦点
◎年  代 2009
◎产  地 日本
◎类  别 剧情
◎语  言 日语
◎上映日期 2009-11-14
◎IMDb评分 6.3/10 (224人评价)
◎IMDb链接 https://www.imdb.com/title/tt1379211/
◎豆瓣评分 7.1/10 (6307人评价)
◎豆瓣链接 https://movie.douban.com/subject/3552328/
◎片  长 130 分钟
◎导  演 犬童一心 Isshin Inudou
◎编  剧 犬童一心 Isshin Inudou
       松本清张 Seicho Matsumoto
       中园健司 Kenji Nakazono
◎演  员 广末凉子 Ryoko Hirosue
       中谷美纪 Miki Nakatani
       木村多江 Tae Kimura
       西岛秀俊 Hidetoshi Nishijima
       鹿贺丈史 Takeshi Kaga
       杉本哲太 Tetta Sugimoto
       市毛良枝 Yoshie Ichige
       崎本大海 Hiromi Sakimoto
       野间口彻 Tôru Nomaguchi
       松本花奈 Hana Matsumoto
       上野耕路 Koji Ueno
       中岛美雪 Miyuki Nakajima
       茑井孝洋 Takahiro Tsutai
       上野聪一 Soichi Ueno
       濑下幸治 Yukiharu Seshimo
◎简  介
  进入20世纪50年月,日本渐渐走出败北的阴影,起头进入经济高度增持久。在此布景下,供职于东瀛第一广告公司的鹈原宪一(西岛秀俊 饰)经人先容结识了美丽贤淑的祯子(广末凉子 饰),二人相互倾慕,未几结婚。婚后未几,鹈原受命前往位于金泽的分公司处事,却并未在预定日期回返。祯子没法继续期待,遂起家前往金泽。在这一进程中,祯子发现自己对丈夫并不领会,鹈原似乎隐藏着无数的奥秘。随着观察的深入,稀里糊涂的死者接连出现,祯子渐渐触摸到丈夫那不为人知的曩昔……                                    
                                本片按照日本推理小说作家松本清张的同名小说改编,也是松本清张诞辰100周年的纪念作品。
  1. Video
  2. ID                                       : 1
  3. Format                                   : AVC
  4. Format/Info                              : Advanced Video Codec
  5. Format profile                           : [email protected]
  6. Format settings                          : CABAC / 5 Ref Frames
  7. Format settings, CABAC                   : Yes
  8. Format settings, Reference frames        : 5 frames
  9. Codec ID                                 : V_MPEG4/ISO/AVC
  10. Duration                                 : 2 h 11 min
  11. Bit rate                                 : 12.4 Mb/s
  12. Width                                    : 1 920 pixels
  13. Height                                   : 814 pixels
  14. Display aspect ratio                     : 2.35:1
  15. Frame rate mode                          : Constant
  16. Frame rate                               : 23.976 (24000/1001) FPS
  17. Color space                              : YUV
  18. Chroma subsampling                       : 4:2:0
  19. Bit depth                                : 8 bits
  20. Scan type                                : Progressive
  21. Bits/(Pixel*Frame)                       : 0.331
  22. Stream size                              : 11.4 GiB (95%)
  23. Title                                    : Jubowo @ WiKi
  24. Writing library                          : x264 core 129 r2245+704+36 8e61944 tMod+MixAQ [[email protected]:2:0 X86_64]
  25. Encoding settings                        : cabac=1 / ref=5 / deblock=1:-3:-3 / analyse=0x3:0x133 / me=umh / subme=11 / psy=1 / fade_compensate=0.00 / psy_rd=1.05:0.10 / mixed_ref=1 / me_range=64 / chroma_me=1 / trellis=2 / 8x8dct=1 / cqm=0 / deadzone=21,11 / fast_pskip=0 / chroma_qp_offset=-3 / threads=18 / lookahead_threads=3 / sliced_threads=0 / nr=0 / decimate=0 / interlaced=0 / bluray_compat=0 / constrained_intra=0 / fgo=0 / bframes=12 / b_pyramid=2 / b_adapt=2 / b_bias=0 / direct=3 / weightb=1 / open_gop=0 / weightp=2 / keyint=250 / keyint_min=23 / scenecut=40 / intra_refresh=0 / rc=2pass / mbtree=0 / bitrate=12418 / ratetol=1.0 / qcomp=0.70 / qpmin=0 / qpmax=69 / qpstep=4 / cplxblur=20.0 / qblur=0.5 / ip_ratio=1.40 / pb_ratio=1.30 / aq=1 / aq-strength=0.90 / aq-sensitivity=10.00 / aq-ifactor=1.00 / aq-pfactor=1.00 / aq-bfactor=1.00 / aq2=0
  26. Language                                 : Japanese
  27. Default                                  : Yes
  28. Forced                                   : No
  29. Audio
  30. ID                                       : 2
  31. Format                                   : AC-3
  32. Format/Info                              : Audio Coding 3
  33. Commercial name                          : Dolby Digital
  34. Codec ID                                 : A_AC3
  35. Duration                                 : 2 h 11 min
  36. Bit rate mode                            : Constant
  37. Bit rate                                 : 640 kb/s
  38. Channel(s)                               : 6 channels
  39. Channel layout                           : L R C LFE Ls Rs
  40. Sampling rate                            : 48.0 kHz
  41. Frame rate                               : 31.250 FPS (1536 SPF)
  42. Compression mode                         : Lossy
  43. Stream size                              : 602 MiB (5%)
  44. Language                                 : Japanese
  45. Service kind                             : Complete Main
  46. Default                                  : Yes
  47. Forced                                   : No
  48. Text
  49. ID                                       : 3
  50. Format                                   : UTF-8
  51. Codec ID                                 : S_TEXT/UTF8
  52. Codec ID/Info                            : UTF-8 Plain Text
  53. Duration                                 : 2 h 11 min
  54. Bit rate                                 : 30 b/s
  55. Frame rate                               : 0.125 FPS
  56. Count of elements                        : 987
  57. Stream size                              : 29.1 KiB (0%)
  58. Language                                 : English
  59. Default                                  : No
  60. Forced                                   : No
  61. Menu
  62. 00:00:00.000                             : en:Chapter 01
  63. 00:10:06.606                             : en:Chapter 02
  64. 00:16:30.406                             : en:Chapter 03
  65. 00:25:28.861                             : en:Chapter 04
  66. 00:33:34.304                             : en:Chapter 05
  67. 00:39:47.427                             : en:Chapter 06
  68. 00:54:39.568                             : en:Chapter 07
  69. 01:03:10.078                             : en:Chapter 08
  70. 01:12:11.661                             : en:Chapter 09
  71. 01:16:29.001                             : en:Chapter 10
  72. 01:25:48.185                             : en:Chapter 11
  73. 01:35:40.151                             : en:Chapter 12
  74. 01:46:51.530                             : en:Chapter 13
  75. 01:53:32.264                             : en:Chapter 14
  76. 01:58:41.740                             : en:Chapter 15
  77. 02:04:29.462                             : en:Chapter 16
复制代码











回复

使用道具 举报

蓝光币
215
发表于 2023-1-12 12:14:45 | 显示全部楼层

楼主太厉害了!楼主,电影应该很好看我觉得蓝光电影网真是个好地方!
回复 支持 反对

使用道具 举报

蓝光币
191
发表于 2023-1-12 13:09:56 | 显示全部楼层
感谢楼主,再发精品
回复 支持 反对

使用道具 举报

蓝光币
51
发表于 2023-1-12 18:04:34 来自手机 | 显示全部楼层
经典电影 谢谢分享
回复 支持 反对

使用道具 举报

懒得打字嘛,点击右侧快捷回复 【右侧内容,后台自定义】
您需要登录后才可以回帖 登录 | 立即加入

本版积分规则

Archiver|小黑屋| 蓝光电影网 |网站地图

Copyright © 2021 Comsenz Inc. Powered by 蓝光电影网

蓝光电影网

本站内容由用户自主分享和转载自互联网,转载目的在于传递更多信息,并不代表本网赞同其观点和对其真实性负责。

如有侵权、违反国家法律政策行为,请联系我们,我们会第一时间及时清除和处理!

举报反馈邮箱:[email protected]

快速回复 返回顶部 返回列表