找回密码

蓝光电影网

查看: 72|回复: 2

[喜剧] 四美寻春.Au.Pair.Girls.1972.REMASTERED.720p.BluRay.x264-GAZER 5.27GB

[复制链接]
蓝光币
1084
发表于 2023-1-12 16:13:35 | 显示全部楼层 |阅读模式


◎标  题 四美寻春
◎译  名 The Young Playmates / Mother’s Helpers
◎片  名 Au Pair Girls
◎年  代 1972
◎产  地 英国
◎类  别 笑剧
◎语  言 英语
◎上映日期 1972-07-01(英国)
◎IMDb评分 4.9/10 (759人评价)
◎IMDb链接 https://www.imdb.com/title/tt0068235/
◎豆瓣评分 6.4/10 (72人评价)
◎豆瓣链接 https://movie.douban.com/subject/1303646/
◎片  长 86 分钟
◎导  演 瓦尔·杰斯特 Val Guest
◎编  剧 瓦尔·杰斯特 Val Guest
◎演  员 阿斯特丽德·弗兰克 Astrid Frank
       约翰尼·布里格斯 Johnny Briggs
       加布里埃尔·德雷克 Gabrielle Drake
       咪咪莱 Me Me Lai
       Nancie Wait Nancie Wait
       Joyce Heron Joyce Heron
       达芙妮·安德森 Daphne Anderson
       杰弗里·拜尔顿 Geoffrey Bayldon
       Roger Avon Roger Avon
       罗莎莉·克拉切利 Rosalie Crutchley
       Harold Bennett Harold Bennett
       朱利安·巴恩斯 Julian Barnes
       约翰·勒·梅苏里尔 John Le Mesurier
       理查德·奥沙利文 Richard O'Sullivan
       Charles Morgan Charles Morgan
       玛丽安·斯通 Marianne Stone
       费迪·梅恩 Ferdy Mayne
       弥尔顿·瑞德 Milton Reid
       约翰·斯坦丁 John Standing
       Trevor Bannister Trevor Bannister
       Roger Webb Roger Webb
       John Wilcox John Wilcox
       Roy Forge Smith Roy Forge Smith
◎简  介
  四本性感的年轻本国女孩以双人游的形式来到英国,她们很快就与店主、寄宿家庭以及几近一切她们碰到的人变得很是密切。
  1. Video
  2. ID                                       : 1
  3. Format                                   : AVC
  4. Format/Info                              : Advanced Video Codec
  5. Format profile                           : [email protected]
  6. Format settings                          : CABAC / 9 Ref Frames
  7. Format settings, CABAC                   : Yes
  8. Format settings, Reference frames        : 9 frames
  9. Codec ID                                 : V_MPEG4/ISO/AVC
  10. Duration                                 : 1 h 24 min
  11. Bit rate                                 : 8 224 kb/s
  12. Width                                    : 1 198 pixels
  13. Height                                   : 720 pixels
  14. Display aspect ratio                     : 5:3
  15. Frame rate mode                          : Constant
  16. Frame rate                               : 23.976 (24000/1001) FPS
  17. Color space                              : YUV
  18. Chroma subsampling                       : 4:2:0
  19. Bit depth                                : 8 bits
  20. Scan type                                : Progressive
  21. Bits/(Pixel*Frame)                       : 0.398
  22. Stream size                              : 4.85 GiB (92%)
  23. Writing library                          : x264 core 164 r3102 416e3eb
  24. Encoding settings                        : cabac=1 / ref=9 / deblock=1:-3:-3 / analyse=0x3:0x133 / me=umh / subme=10 / psy=1 / psy_rd=1.20:0.00 / mixed_ref=1 / me_range=24 / chroma_me=1 / trellis=2 / 8x8dct=1 / cqm=0 / deadzone=21,11 / fast_pskip=0 / chroma_qp_offset=-2 / threads=22 / lookahead_threads=3 / sliced_threads=0 / nr=0 / decimate=0 / interlaced=0 / bluray_compat=0 / constrained_intra=0 / bframes=8 / b_pyramid=2 / b_adapt=2 / b_bias=0 / direct=3 / weightb=1 / open_gop=0 / weightp=2 / keyint=250 / keyint_min=23 / scenecut=40 / intra_refresh=0 / rc_lookahead=60 / rc=crf / mbtree=1 / crf=18.5 / qcomp=0.60 / qpmin=0 / qpmax=69 / qpstep=4 / ip_ratio=1.40 / aq=3:0.90
  25. Default                                  : Yes
  26. Forced                                   : No
  27. Color range                              : Limited
  28. Matrix coefficients                      : BT.709
  29. Audio
  30. ID                                       : 2
  31. Format                                   : FLAC
  32. Format/Info                              : Free Lossless Audio Codec
  33. Codec ID                                 : A_FLAC
  34. Duration                                 : 1 h 24 min
  35. Bit rate mode                            : Variable
  36. Bit rate                                 : 686 kb/s
  37. Channel(s)                               : 2 channels
  38. Channel layout                           : L R
  39. Sampling rate                            : 48.0 kHz
  40. Frame rate                               : 11.719 FPS (4096 SPF)
  41. Bit depth                                : 24 bits
  42. Compression mode                         : Lossless
  43. Stream size                              : 415 MiB (8%)
  44. Writing library                          : libFLAC 1.3.3 (UTC 2019-08-04)
  45. Language                                 : English
  46. Default                                  : Yes
  47. Forced                                   : No
  48. Text
  49. ID                                       : 3
  50. Format                                   : PGS
  51. Muxing mode                              : zlib
  52. Codec ID                                 : S_HDMV/PGS
  53. Codec ID/Info                            : Picture based subtitle format used on BDs/HD-DVDs
  54. Duration                                 : 1 h 24 min
  55. Bit rate                                 : 44.3 kb/s
  56. Count of elements                        : 2696
  57. Stream size                              : 26.8 MiB (0%)
  58. Title                                    : SDH
  59. Language                                 : English
  60. Default                                  : No
  61. Forced                                   : No
  62. Menu
  63. 00:00:00.000                             : Chapter 01
  64. 00:07:29.574                             : Chapter 02
  65. 00:15:21.921                             : Chapter 03
  66. 00:23:25.779                             : Chapter 04
  67. 00:33:00.145                             : Chapter 05
  68. 00:40:47.487                             : Chapter 06
  69. 00:51:18.784                             : Chapter 07
  70. 01:01:13.044                             : Chapter 08
  71. 01:07:50.984                             : Chapter 09
  72. 01:16:35.883                             : Chapter 10
  73. 01:23:06.648                             : Chapter 11
  74. 01:24:29.398                             : Chapter 12
复制代码









回复

使用道具 举报

蓝光币
233
发表于 2023-1-13 02:26:05 | 显示全部楼层
老电影,多谢楼主的分享了
回复 支持 反对

使用道具 举报

蓝光币
524
发表于 2023-1-14 21:53:06 | 显示全部楼层
不错不错!!!
回复

使用道具 举报

懒得打字嘛,点击右侧快捷回复 【右侧内容,后台自定义】
您需要登录后才可以回帖 登录 | 立即加入

本版积分规则

Archiver|小黑屋| 蓝光电影网 |网站地图

Copyright © 2021 Comsenz Inc. Powered by 蓝光电影网

蓝光电影网

本站内容由用户自主分享和转载自互联网,转载目的在于传递更多信息,并不代表本网赞同其观点和对其真实性负责。

如有侵权、违反国家法律政策行为,请联系我们,我们会第一时间及时清除和处理!

举报反馈邮箱:[email protected]

快速回复 返回顶部 返回列表