找回密码

蓝光电影网

查看: 40|回复: 0

[剧情] 末班车.The.Last.Bus.2021.720p.BluRay.x264-UNVEiL 3.55GB

[复制链接]
蓝光币
1082
发表于 2023-1-12 16:13:36 | 显示全部楼层 |阅读模式


◎标  题 末班车
◎译  名 最初的巴士
◎片  名 The Last Bus
◎年  代 2021
◎产  地 英国
◎类  别 剧情
◎语  言 英语
◎上映日期 2021-06-18(西班牙) / 2021-08-27(英国)
◎IMDb评分 6.5/10 (2306人评价)
◎IMDb链接 https://www.imdb.com/title/tt9410034/
◎豆瓣链接 https://movie.douban.com/subject/34851268/
◎片  长 86分钟
◎导  演 基利士·麦根诺 Gillies MacKinnon
◎演  员 蒂莫西·斯波 Timothy Spall
       菲利斯·洛根 Phyllis Logan
       塞林·琼斯 Celyn Jones
        Ronan Doyle
◎简  介
  蒂莫西·斯波、菲利斯·洛根将继[奥秘与假话]23年后再合作,主演新片[末班车](The Last Bus,暂译)。本片由基利士·麦根诺([北非情人])执导,今朝正在建造中,Joe Ainsworth(《霍尔比市》)撰写剧本。故事围绕鳏夫汤姆(斯波饰)展开,当他的妻子玛丽(洛根饰)归天时,他筹算在英国展畅怀旧之旅,从苏格兰的约翰欧格罗兹到他们配合的诞生地康沃尔的兰兹角。他只乘坐当地的公交车,与当地人的打仗让他成为了一个媒表现象。因而当他到达兰兹角时,惊奇地发现自己遭到了名流般的接待。
  1. Video
  2. ID                                       : 1
  3. Format                                   : AVC
  4. Format/Info                              : Advanced Video Codec
  5. Format profile                           : [email protected]
  6. Format settings                          : CABAC / 8 Ref Frames
  7. Format settings, CABAC                   : Yes
  8. Format settings, Reference frames        : 8 frames
  9. Codec ID                                 : V_MPEG4/ISO/AVC
  10. Duration                                 : 1 h 25 min
  11. Bit rate                                 : 5 267 kb/s
  12. Width                                    : 1 280 pixels
  13. Height                                   : 536 pixels
  14. Display aspect ratio                     : 2.40:1
  15. Frame rate mode                          : Constant
  16. Frame rate                               : 24.000 FPS
  17. Color space                              : YUV
  18. Chroma subsampling                       : 4:2:0
  19. Bit depth                                : 8 bits
  20. Scan type                                : Progressive
  21. Bits/(Pixel*Frame)                       : 0.320
  22. Stream size                              : 3.16 GiB (89%)
  23. Writing library                          : x264 core 164 r3101 b093bbe
  24. Encoding settings                        : cabac=1 / ref=8 / deblock=1:-3:-3 / analyse=0x3:0x133 / me=umh / subme=9 / psy=1 / psy_rd=1.00:0.00 / mixed_ref=1 / me_range=16 / chroma_me=1 / trellis=2 / 8x8dct=1 / cqm=0 / deadzone=21,11 / fast_pskip=0 / chroma_qp_offset=-2 / threads=17 / lookahead_threads=1 / sliced_threads=0 / nr=0 / decimate=1 / interlaced=0 / bluray_compat=0 / constrained_intra=0 / bframes=3 / b_pyramid=2 / b_adapt=2 / b_bias=0 / direct=3 / weightb=1 / open_gop=0 / weightp=2 / keyint=250 / keyint_min=24 / scenecut=40 / intra_refresh=0 / rc_lookahead=60 / rc=crf / mbtree=1 / crf=17.0 / qcomp=0.60 / qpmin=0 / qpmax=69 / qpstep=4 / ip_ratio=1.40 / aq=1:1.00
  25. Language                                 : English
  26. Default                                  : Yes
  27. Forced                                   : No
  28. Audio
  29. ID                                       : 2
  30. Format                                   : AC-3
  31. Format/Info                              : Audio Coding 3
  32. Commercial name                          : Dolby Digital
  33. Codec ID                                 : A_AC3
  34. Duration                                 : 1 h 25 min
  35. Bit rate mode                            : Constant
  36. Bit rate                                 : 640 kb/s
  37. Channel(s)                               : 6 channels
  38. Channel layout                           : L R C LFE Ls Rs
  39. Sampling rate                            : 48.0 kHz
  40. Frame rate                               : 31.250 FPS (1536 SPF)
  41. Compression mode                         : Lossy
  42. Stream size                              : 393 MiB (11%)
  43. Language                                 : English
  44. Service kind                             : Complete Main
  45. Default                                  : Yes
  46. Forced                                   : No
  47. Text #1
  48. ID                                       : 3
  49. Format                                   : PGS
  50. Muxing mode                              : zlib
  51. Codec ID                                 : S_HDMV/PGS
  52. Codec ID/Info                            : Picture based subtitle format used on BDs/HD-DVDs
  53. Duration                                 : 1 h 18 min
  54. Bit rate                                 : 1 347 b/s
  55. Count of elements                        : 64
  56. Stream size                              : 777 KiB (0%)
  57. Language                                 : German
  58. Default                                  : No
  59. Forced                                   : No
  60. Text #2
  61. ID                                       : 4
  62. Format                                   : PGS
  63. Muxing mode                              : zlib
  64. Codec ID                                 : S_HDMV/PGS
  65. Codec ID/Info                            : Picture based subtitle format used on BDs/HD-DVDs
  66. Duration                                 : 1 h 22 min
  67. Bit rate                                 : 20.2 kb/s
  68. Count of elements                        : 1288
  69. Stream size                              : 12.0 MiB (0%)
  70. Language                                 : German
  71. Default                                  : No
  72. Forced                                   : No
  73. Menu
  74. 00:00:00.000                             : en:Chapter 01
  75. 00:04:24.542                             : en:Chapter 02
  76. 00:09:55.375                             : en:Chapter 03
  77. 00:14:59.792                             : en:Chapter 04
  78. 00:20:53.625                             : en:Chapter 05
  79. 00:26:14.667                             : en:Chapter 06
  80. 00:31:50.792                             : en:Chapter 07
  81. 00:37:23.417                             : en:Chapter 08
  82. 00:41:44.250                             : en:Chapter 09
  83. 00:49:52.500                             : en:Chapter 10
  84. 00:53:57.167                             : en:Chapter 11
  85. 00:58:35.083                             : en:Chapter 12
  86. 01:02:44.208                             : en:Chapter 13
  87. 01:09:26.750                             : en:Chapter 14
  88. 01:16:27.667                             : en:Chapter 15
  89. 01:22:22.458                             : en:Chapter 16
复制代码









回复

使用道具 举报

懒得打字嘛,点击右侧快捷回复 【右侧内容,后台自定义】
您需要登录后才可以回帖 登录 | 立即加入

本版积分规则

Archiver|小黑屋| 蓝光电影网 |网站地图

Copyright © 2021 Comsenz Inc. Powered by 蓝光电影网

蓝光电影网

本站内容由用户自主分享和转载自互联网,转载目的在于传递更多信息,并不代表本网赞同其观点和对其真实性负责。

如有侵权、违反国家法律政策行为,请联系我们,我们会第一时间及时清除和处理!

举报反馈邮箱:[email protected]

快速回复 返回顶部 返回列表