找回密码

蓝光电影网

查看: 38|回复: 0

[2160p-WEB] 圣诞男孩[中文字幕].A.Boy.Called.Christmas.2021.2160p.NF.WEB-DL.x265.10bit.SDR.DDP5.1.Atmos-XEBEC 9.39GB

[复制链接]
蓝光币
1082
发表于 2023-1-12 16:18:31 | 显示全部楼层 |阅读模式


◎标  题 圣诞男孩
◎片  名 A Boy Called Christmas
◎年  代 2021
◎产  地 英国
◎类  别 剧情 / 家庭 / 奇异 / 冒险
◎语  言 英语
◎上映日期 2021年11月24日
◎IMDb评分 6.7/10 (20387人评价)
◎IMDb链接 https://www.imdb.com/title/tt10187208/
◎豆瓣评分 6.4/10 (586人评价)
◎豆瓣链接 https://movie.douban.com/subject/33411411/
◎片  长 分钟
◎导  演 吉尔·克兰
◎编  剧 欧·帕克
       吉尔·克兰
       Matt Haig
◎演  员 玛吉·史姑娘
       亨利·劳福
       莎莉·霍金斯
       克里斯汀·韦格
       米希尔·赫伊斯曼
       托比·琼斯
       斯戴芬·莫昌特
       吉姆·布劳德本特
       佐伊·玛格丽特·科莱蒂
       鲁内·泰特
       印迪卡·沃森
       彼得·霍斯金
       肯德里克·昂
       崔西·奥斯蒙德
       Philip Lenkowsky
       Perveen Hussain
       Sinead Phelps
◎简  介
  吉姆·布劳德本特、克里斯汀·韦格、莎莉·霍金斯、玛吉·史姑娘加盟影片[圣诞男孩](A Boy Called Christmas,暂译),其他卡司包括佐伊·玛格丽特·科莱蒂([狂野生活])、托比·琼斯([金发缪斯])、米契尔·哈思曼(《鬼入侵》)等。吉尔·克兰([怪兽屋])执导,吉尔与欧·帕克([涉外大饭馆])配合操刀剧本。
                                    
                                故事改编自马特·海格同名畅销书,报告11岁的尼古拉斯和父亲住在一路,尼古拉斯最好的伙伴是一只小老鼠。有一天,父亲接到一项奥秘的使命,不能不离家远行。姑妈来抵家里照顾尼古拉斯。姑妈并不喜好他,而且把尼古拉斯妈妈留下的唯一的玩具毁掉了。尼古拉斯和小老鼠离家出走,去寻觅父亲。他在路上熟悉了一头驯鹿,相互成为了朋友。他骑着驯鹿,起头了寻觅“妖精堡”的奇异之旅。
                                    
                                影片今朝已开拍。Studiocanal负责影片澳大利亚、中国、法国、新西兰、英国刊行。Netflix负责其他国家和地域刊行。
  1. Video
  2. ID                                       : 1
  3. Format                                   : HEVC
  4. Format/Info                              : High Efficiency Video Coding
  5. Format profile                           : Main [email protected]@Main
  6. Codec ID                                 : V_MPEGH/ISO/HEVC
  7. Duration                                 : 1 h 46 min
  8. Bit rate                                 : 11.8 Mb/s
  9. Width                                    : 3 840 pixels
  10. Height                                   : 2 160 pixels
  11. Display aspect ratio                     : 16:9
  12. Frame rate mode                          : Constant
  13. Frame rate                               : 24.000 FPS
  14. Color space                              : YUV
  15. Chroma subsampling                       : 4:2:0
  16. Bit depth                                : 10 bits
  17. Bits/(Pixel*Frame)                       : 0.059
  18. Stream size                              : 8.81 GiB (94%)
  19. Default                                  : Yes
  20. Forced                                   : No
  21. Color range                              : Limited
  22. Color primaries                          : BT.709
  23. Transfer characteristics                 : BT.709
  24. Matrix coefficients                      : BT.709
  25. Audio
  26. ID                                       : 2
  27. Format                                   : E-AC-3 JOC
  28. Format/Info                              : Enhanced AC-3 with Joint Object Coding
  29. Commercial name                          : Dolby Digital Plus with Dolby Atmos
  30. Codec ID                                 : A_EAC3
  31. Duration                                 : 1 h 46 min
  32. Bit rate mode                            : Constant
  33. Bit rate                                 : 768 kb/s
  34. Channel(s)                               : 6 channels
  35. Channel layout                           : L R C LFE Ls Rs
  36. Sampling rate                            : 48.0 kHz
  37. Frame rate                               : 31.250 FPS (1536 SPF)
  38. Compression mode                         : Lossy
  39. Stream size                              : 587 MiB (6%)
  40. Title                                    : English
  41. Language                                 : English
  42. Service kind                             : Complete Main
  43. Default                                  : Yes
  44. Forced                                   : No
  45. Complexity index                         : 16
  46. Number of dynamic objects                : 15
  47. Bed channel count                        : 1 channel
  48. Bed channel configuration                : LFE
  49. Text #1
  50. ID                                       : 3
  51. Format                                   : UTF-8
  52. Codec ID                                 : S_TEXT/UTF8
  53. Codec ID/Info                            : UTF-8 Plain Text
  54. Duration                                 : 1 h 42 min
  55. Bit rate                                 : 88 b/s
  56. Frame rate                               : 0.201 FPS
  57. Count of elements                        : 1239
  58. Stream size                              : 66.6 KiB (0%)
  59. Title                                    : Arabic
  60. Language                                 : Arabic
  61. Default                                  : No
  62. Forced                                   : No
  63. Text #2
  64. ID                                       : 4
  65. Format                                   : UTF-8
  66. Codec ID                                 : S_TEXT/UTF8
  67. Codec ID/Info                            : UTF-8 Plain Text
  68. Duration                                 : 1 h 42 min
  69. Bit rate                                 : 47 b/s
  70. Frame rate                               : 0.192 FPS
  71. Count of elements                        : 1183
  72. Stream size                              : 36.0 KiB (0%)
  73. Title                                    : Czech
  74. Language                                 : Czech
  75. Default                                  : No
  76. Forced                                   : No
  77. Text #3
  78. ID                                       : 5
  79. Format                                   : UTF-8
  80. Codec ID                                 : S_TEXT/UTF8
  81. Codec ID/Info                            : UTF-8 Plain Text
  82. Duration                                 : 1 h 42 min
  83. Bit rate                                 : 46 b/s
  84. Frame rate                               : 0.193 FPS
  85. Count of elements                        : 1188
  86. Stream size                              : 35.2 KiB (0%)
  87. Title                                    : Danish
  88. Language                                 : Danish
  89. Default                                  : No
  90. Forced                                   : No
  91. Text #4
  92. ID                                       : 6
  93. Format                                   : UTF-8
  94. Codec ID                                 : S_TEXT/UTF8
  95. Codec ID/Info                            : UTF-8 Plain Text
  96. Duration                                 : 1 h 42 min
  97. Bit rate                                 : 83 b/s
  98. Frame rate                               : 0.218 FPS
  99. Count of elements                        : 1343
  100. Stream size                              : 62.5 KiB (0%)
  101. Title                                    : Modern Greek (1453-)
  102. Language                                 : Greek
  103. Default                                  : No
  104. Forced                                   : No
  105. Text #5
  106. ID                                       : 7
  107. Format                                   : UTF-8
  108. Codec ID                                 : S_TEXT/UTF8
  109. Codec ID/Info                            : UTF-8 Plain Text
  110. Duration                                 : 1 h 41 min
  111. Bit rate                                 : 66 b/s
  112. Frame rate                               : 0.268 FPS
  113. Count of elements                        : 1638
  114. Stream size                              : 49.5 KiB (0%)
  115. Title                                    : English (SDH)
  116. Language                                 : English
  117. Default                                  : No
  118. Forced                                   : No
  119. Text #6
  120. ID                                       : 8
  121. Format                                   : UTF-8
  122. Codec ID                                 : S_TEXT/UTF8
  123. Codec ID/Info                            : UTF-8 Plain Text
  124. Duration                                 : 1 h 42 min
  125. Bit rate                                 : 48 b/s
  126. Frame rate                               : 0.199 FPS
  127. Count of elements                        : 1222
  128. Stream size                              : 36.5 KiB (0%)
  129. Title                                    : Spanish
  130. Language                                 : Spanish
  131. Default                                  : No
  132. Forced                                   : No
  133. Text #7
  134. ID                                       : 9
  135. Format                                   : UTF-8
  136. Codec ID                                 : S_TEXT/UTF8
  137. Codec ID/Info                            : UTF-8 Plain Text
  138. Duration                                 : 1 h 42 min
  139. Bit rate                                 : 45 b/s
  140. Frame rate                               : 0.224 FPS
  141. Count of elements                        : 1381
  142. Stream size                              : 34.1 KiB (0%)
  143. Title                                    : Spanish
  144. Language                                 : Spanish
  145. Default                                  : No
  146. Forced                                   : No
  147. Text #8
  148. ID                                       : 10
  149. Format                                   : UTF-8
  150. Codec ID                                 : S_TEXT/UTF8
  151. Codec ID/Info                            : UTF-8 Plain Text
  152. Duration                                 : 1 h 42 min
  153. Bit rate                                 : 44 b/s
  154. Frame rate                               : 0.170 FPS
  155. Count of elements                        : 1046
  156. Stream size                              : 33.1 KiB (0%)
  157. Title                                    : Finnish
  158. Language                                 : Finnish
  159. Default                                  : No
  160. Forced                                   : No
  161. Text #9
  162. ID                                       : 11
  163. Format                                   : UTF-8
  164. Codec ID                                 : S_TEXT/UTF8
  165. Codec ID/Info                            : UTF-8 Plain Text
  166. Duration                                 : 1 h 42 min
  167. Bit rate                                 : 52 b/s
  168. Frame rate                               : 0.193 FPS
  169. Count of elements                        : 1189
  170. Stream size                              : 39.7 KiB (0%)
  171. Title                                    : Filipino
  172. Language                                 : fil
  173. Default                                  : No
  174. Forced                                   : No
  175. Text #10
  176. ID                                       : 12
  177. Format                                   : UTF-8
  178. Codec ID                                 : S_TEXT/UTF8
  179. Codec ID/Info                            : UTF-8 Plain Text
  180. Duration                                 : 1 h 42 min
  181. Bit rate                                 : 79 b/s
  182. Frame rate                               : 0.196 FPS
  183. Count of elements                        : 1204
  184. Stream size                              : 59.4 KiB (0%)
  185. Title                                    : Hebrew
  186. Language                                 : Hebrew
  187. Default                                  : No
  188. Forced                                   : No
  189. Text #11
  190. ID                                       : 13
  191. Format                                   : UTF-8
  192. Codec ID                                 : S_TEXT/UTF8
  193. Codec ID/Info                            : UTF-8 Plain Text
  194. Duration                                 : 1 h 42 min
  195. Bit rate                                 : 43 b/s
  196. Frame rate                               : 0.199 FPS
  197. Count of elements                        : 1225
  198. Stream size                              : 32.8 KiB (0%)
  199. Title                                    : Croatian
  200. Language                                 : Croatian
  201. Default                                  : No
  202. Forced                                   : No
  203. Text #12
  204. ID                                       : 14
  205. Format                                   : UTF-8
  206. Codec ID                                 : S_TEXT/UTF8
  207. Codec ID/Info                            : UTF-8 Plain Text
  208. Duration                                 : 1 h 42 min
  209. Bit rate                                 : 49 b/s
  210. Frame rate                               : 0.197 FPS
  211. Count of elements                        : 1210
  212. Stream size                              : 37.2 KiB (0%)
  213. Title                                    : Hungarian
  214. Language                                 : Hungarian
  215. Default                                  : No
  216. Forced                                   : No
  217. Text #13
  218. ID                                       : 15
  219. Format                                   : UTF-8
  220. Codec ID                                 : S_TEXT/UTF8
  221. Codec ID/Info                            : UTF-8 Plain Text
  222. Duration                                 : 1 h 42 min
  223. Bit rate                                 : 47 b/s
  224. Frame rate                               : 0.195 FPS
  225. Count of elements                        : 1202
  226. Stream size                              : 35.9 KiB (0%)
  227. Title                                    : Indonesian
  228. Language                                 : Indonesian
  229. Default                                  : No
  230. Forced                                   : No
  231. Text #14
  232. ID                                       : 16
  233. Format                                   : UTF-8
  234. Codec ID                                 : S_TEXT/UTF8
  235. Codec ID/Info                            : UTF-8 Plain Text
  236. Duration                                 : 1 h 42 min
  237. Bit rate                                 : 49 b/s
  238. Frame rate                               : 0.195 FPS
  239. Count of elements                        : 1200
  240. Stream size                              : 37.1 KiB (0%)
  241. Title                                    : Italian
  242. Language                                 : Italian
  243. Default                                  : No
  244. Forced                                   : No
  245. Text #15
  246. ID                                       : 17
  247. Format                                   : UTF-8
  248. Codec ID                                 : S_TEXT/UTF8
  249. Codec ID/Info                            : UTF-8 Plain Text
  250. Duration                                 : 1 h 42 min
  251. Bit rate                                 : 50 b/s
  252. Frame rate                               : 0.228 FPS
  253. Count of elements                        : 1401
  254. Stream size                              : 37.8 KiB (0%)
  255. Title                                    : Japanese
  256. Language                                 : Japanese
  257. Default                                  : No
  258. Forced                                   : No
  259. Text #16
  260. ID                                       : 18
  261. Format                                   : UTF-8
  262. Codec ID                                 : S_TEXT/UTF8
  263. Codec ID/Info                            : UTF-8 Plain Text
  264. Duration                                 : 1 h 42 min
  265. Bit rate                                 : 61 b/s
  266. Frame rate                               : 0.202 FPS
  267. Count of elements                        : 1241
  268. Stream size                              : 46.3 KiB (0%)
  269. Title                                    : Korean
  270. Language                                 : Korean
  271. Default                                  : No
  272. Forced                                   : No
  273. Text #17
  274. ID                                       : 19
  275. Format                                   : UTF-8
  276. Codec ID                                 : S_TEXT/UTF8
  277. Codec ID/Info                            : UTF-8 Plain Text
  278. Duration                                 : 1 h 42 min
  279. Bit rate                                 : 48 b/s
  280. Frame rate                               : 0.194 FPS
  281. Count of elements                        : 1196
  282. Stream size                              : 36.1 KiB (0%)
  283. Title                                    : Malay (macrolanguage)
  284. Language                                 : Malay
  285. Default                                  : No
  286. Forced                                   : No
  287. Text #18
  288. ID                                       : 20
  289. Format                                   : UTF-8
  290. Codec ID                                 : S_TEXT/UTF8
  291. Codec ID/Info                            : UTF-8 Plain Text
  292. Duration                                 : 1 h 42 min
  293. Bit rate                                 : 46 b/s
  294. Frame rate                               : 0.180 FPS
  295. Count of elements                        : 1110
  296. Stream size                              : 34.6 KiB (0%)
  297. Title                                    : Norwegian Bokm?l
  298. Language                                 : Norwegian Bokmal
  299. Default                                  : No
  300. Forced                                   : No
  301. Text #19
  302. ID                                       : 21
  303. Format                                   : UTF-8
  304. Codec ID                                 : S_TEXT/UTF8
  305. Codec ID/Info                            : UTF-8 Plain Text
  306. Duration                                 : 1 h 42 min
  307. Bit rate                                 : 48 b/s
  308. Frame rate                               : 0.177 FPS
  309. Count of elements                        : 1090
  310. Stream size                              : 36.7 KiB (0%)
  311. Title                                    : Dutch
  312. Language                                 : Dutch
  313. Default                                  : No
  314. Forced                                   : No
  315. Text #20
  316. ID                                       : 22
  317. Format                                   : UTF-8
  318. Codec ID                                 : S_TEXT/UTF8
  319. Codec ID/Info                            : UTF-8 Plain Text
  320. Duration                                 : 1 h 42 min
  321. Bit rate                                 : 47 b/s
  322. Frame rate                               : 0.189 FPS
  323. Count of elements                        : 1162
  324. Stream size                              : 36.0 KiB (0%)
  325. Title                                    : Polish
  326. Language                                 : Polish
  327. Default                                  : No
  328. Forced                                   : No
  329. Text #21
  330. ID                                       : 23
  331. Format                                   : UTF-8
  332. Codec ID                                 : S_TEXT/UTF8
  333. Codec ID/Info                            : UTF-8 Plain Text
  334. Duration                                 : 1 h 42 min
  335. Bit rate                                 : 47 b/s
  336. Frame rate                               : 0.208 FPS
  337. Count of elements                        : 1280
  338. Stream size                              : 36.0 KiB (0%)
  339. Title                                    : Portuguese
  340. Language                                 : Portuguese
  341. Default                                  : No
  342. Forced                                   : No
  343. Text #22
  344. ID                                       : 24
  345. Format                                   : UTF-8
  346. Codec ID                                 : S_TEXT/UTF8
  347. Codec ID/Info                            : UTF-8 Plain Text
  348. Duration                                 : 1 h 42 min
  349. Bit rate                                 : 49 b/s
  350. Frame rate                               : 0.197 FPS
  351. Count of elements                        : 1212
  352. Stream size                              : 37.2 KiB (0%)
  353. Title                                    : Portuguese
  354. Language                                 : Portuguese
  355. Default                                  : No
  356. Forced                                   : No
  357. Text #23
  358. ID                                       : 25
  359. Format                                   : UTF-8
  360. Codec ID                                 : S_TEXT/UTF8
  361. Codec ID/Info                            : UTF-8 Plain Text
  362. Duration                                 : 1 h 42 min
  363. Bit rate                                 : 56 b/s
  364. Frame rate                               : 0.189 FPS
  365. Count of elements                        : 1162
  366. Stream size                              : 42.1 KiB (0%)
  367. Title                                    : Romanian
  368. Language                                 : Romanian
  369. Default                                  : No
  370. Forced                                   : No
  371. Text #24
  372. ID                                       : 26
  373. Format                                   : UTF-8
  374. Codec ID                                 : S_TEXT/UTF8
  375. Codec ID/Info                            : UTF-8 Plain Text
  376. Duration                                 : 1 h 42 min
  377. Bit rate                                 : 77 b/s
  378. Frame rate                               : 0.197 FPS
  379. Count of elements                        : 1212
  380. Stream size                              : 58.4 KiB (0%)
  381. Title                                    : Russian
  382. Language                                 : Russian
  383. Default                                  : No
  384. Forced                                   : No
  385. Text #25
  386. ID                                       : 27
  387. Format                                   : UTF-8
  388. Codec ID                                 : S_TEXT/UTF8
  389. Codec ID/Info                            : UTF-8 Plain Text
  390. Duration                                 : 1 h 42 min
  391. Bit rate                                 : 46 b/s
  392. Frame rate                               : 0.182 FPS
  393. Count of elements                        : 1119
  394. Stream size                              : 35.3 KiB (0%)
  395. Title                                    : Swedish
  396. Language                                 : Swedish
  397. Default                                  : No
  398. Forced                                   : No
  399. Text #26
  400. ID                                       : 28
  401. Format                                   : UTF-8
  402. Codec ID                                 : S_TEXT/UTF8
  403. Codec ID/Info                            : UTF-8 Plain Text
  404. Duration                                 : 1 h 42 min
  405. Bit rate                                 : 137 b/s
  406. Frame rate                               : 0.197 FPS
  407. Count of elements                        : 1210
  408. Stream size                              : 103 KiB (0%)
  409. Title                                    : Thai
  410. Language                                 : Thai
  411. Default                                  : No
  412. Forced                                   : No
  413. Text #27
  414. ID                                       : 29
  415. Format                                   : UTF-8
  416. Codec ID                                 : S_TEXT/UTF8
  417. Codec ID/Info                            : UTF-8 Plain Text
  418. Duration                                 : 1 h 42 min
  419. Bit rate                                 : 48 b/s
  420. Frame rate                               : 0.213 FPS
  421. Count of elements                        : 1313
  422. Stream size                              : 36.7 KiB (0%)
  423. Title                                    : Turkish
  424. Language                                 : Turkish
  425. Default                                  : No
  426. Forced                                   : No
  427. Text #28
  428. ID                                       : 30
  429. Format                                   : UTF-8
  430. Codec ID                                 : S_TEXT/UTF8
  431. Codec ID/Info                            : UTF-8 Plain Text
  432. Duration                                 : 1 h 42 min
  433. Bit rate                                 : 78 b/s
  434. Frame rate                               : 0.191 FPS
  435. Count of elements                        : 1178
  436. Stream size                              : 58.6 KiB (0%)
  437. Title                                    : Ukrainian
  438. Language                                 : Ukrainian
  439. Default                                  : No
  440. Forced                                   : No
  441. Text #29
  442. ID                                       : 31
  443. Format                                   : UTF-8
  444. Codec ID                                 : S_TEXT/UTF8
  445. Codec ID/Info                            : UTF-8 Plain Text
  446. Duration                                 : 1 h 42 min
  447. Bit rate                                 : 53 b/s
  448. Frame rate                               : 0.199 FPS
  449. Count of elements                        : 1224
  450. Stream size                              : 40.1 KiB (0%)
  451. Title                                    : Simplified, Chinese
  452. Language                                 : Chinese
  453. Default                                  : No
  454. Forced                                   : No
  455. Text #30
  456. ID                                       : 32
  457. Format                                   : UTF-8
  458. Codec ID                                 : S_TEXT/UTF8
  459. Codec ID/Info                            : UTF-8 Plain Text
  460. Duration                                 : 1 h 42 min
  461. Bit rate                                 : 55 b/s
  462. Frame rate                               : 0.203 FPS
  463. Count of elements                        : 1251
  464. Stream size                              : 41.6 KiB (0%)
  465. Title                                    : Traditional, Chinese
  466. Language                                 : Chinese
  467. Default                                  : No
  468. Forced                                   : No
  469. Menu
  470. 00:00:00.000                             : en:Part 01
  471. 01:36:43.450                             : en:Credits
复制代码











回复

使用道具 举报

懒得打字嘛,点击右侧快捷回复 【右侧内容,后台自定义】
您需要登录后才可以回帖 登录 | 立即加入

本版积分规则

Archiver|小黑屋| 蓝光电影网 |网站地图

Copyright © 2021 Comsenz Inc. Powered by 蓝光电影网

蓝光电影网

本站内容由用户自主分享和转载自互联网,转载目的在于传递更多信息,并不代表本网赞同其观点和对其真实性负责。

如有侵权、违反国家法律政策行为,请联系我们,我们会第一时间及时清除和处理!

举报反馈邮箱:[email protected]

快速回复 返回顶部 返回列表