找回密码

蓝光电影网

查看: 1382|回复: 1

[2160p-WEB] 圣诞城堡[中文字幕].A.Castle.For.Christmas.2021.2160p.NF.WEB-DL.x265.10bit.SDR.DDP5.1.Atmos-XEBEC 8.76GB

[复制链接]
蓝光币
1704
发表于 2023-1-12 16:18:32 | 显示全部楼层 |阅读模式


◎标  题 圣诞城堡
◎片  名 A Castle for Christmas
◎年  代 2021
◎产  地 美国
◎类  别 恋爱
◎语  言 英语
◎上映日期 2021-11-26(美国)
◎IMDb评分 5.5/10 (13822人评价)
◎IMDb链接 https://www.imdb.com/title/tt13070602/
◎豆瓣评分 5.9/10 (448人评价)
◎豆瓣链接 https://movie.douban.com/subject/35278795/
◎片  长 98分钟
◎导  演 玛丽·兰伯特 Mary Lambert
◎编  剧 Neal H. Dobrofsky Neal H. Dobrofsky
       Tippi Dobrofsky Tippi Dobrofsky
◎演  员 波姬·小丝 Brooke Shields
       加利·艾尔维斯 Cary Elwes
       巴利 Barley
◎简  介
  A famed American author, Sophie, who travels to Scotland and finds herself wanting to buy a castle, but the prickly owner, a Scottish Duke named Myles, is reluctant to sell to a foreigner.
  1. Video
  2. ID                                       : 1
  3. Format                                   : HEVC
  4. Format/Info                              : High Efficiency Video Coding
  5. Format profile                           : Main 10@L5@Main
  6. Codec ID                                 : V_MPEGH/ISO/HEVC
  7. Duration                                 : 1 h 39 min
  8. Bit rate                                 : 11.8 Mb/s
  9. Width                                    : 3 840 pixels
  10. Height                                   : 2 160 pixels
  11. Display aspect ratio                     : 16:9
  12. Frame rate mode                          : Constant
  13. Frame rate                               : 24.000 FPS
  14. Color space                              : YUV
  15. Chroma subsampling                       : 4:2:0
  16. Bit depth                                : 10 bits
  17. Bits/(Pixel*Frame)                       : 0.060
  18. Stream size                              : 8.22 GiB (94%)
  19. Default                                  : Yes
  20. Forced                                   : No
  21. Color range                              : Limited
  22. Color primaries                          : BT.709
  23. Transfer characteristics                 : BT.709
  24. Matrix coefficients                      : BT.709
  25. Audio
  26. ID                                       : 2
  27. Format                                   : E-AC-3 JOC
  28. Format/Info                              : Enhanced AC-3 with Joint Object Coding
  29. Commercial name                          : Dolby Digital Plus with Dolby Atmos
  30. Codec ID                                 : A_EAC3
  31. Duration                                 : 1 h 39 min
  32. Bit rate mode                            : Constant
  33. Bit rate                                 : 768 kb/s
  34. Channel(s)                               : 6 channels
  35. Channel layout                           : L R C LFE Ls Rs
  36. Sampling rate                            : 48.0 kHz
  37. Frame rate                               : 31.250 FPS (1536 SPF)
  38. Compression mode                         : Lossy
  39. Stream size                              : 546 MiB (6%)
  40. Title                                    : English
  41. Language                                 : English
  42. Service kind                             : Complete Main
  43. Default                                  : Yes
  44. Forced                                   : No
  45. Complexity index                         : 16
  46. Number of dynamic objects                : 15
  47. Bed channel count                        : 1 channel
  48. Bed channel configuration                : LFE
  49. Text #1
  50. ID                                       : 3
  51. Format                                   : UTF-8
  52. Codec ID                                 : S_TEXT/UTF8
  53. Codec ID/Info                            : UTF-8 Plain Text
  54. Duration                                 : 15 s 958 ms
  55. Bit rate                                 : 35 b/s
  56. Frame rate                               : 0.251 FPS
  57. Count of elements                        : 4
  58. Stream size                              : 70.0 Bytes (0%)
  59. Title                                    : English (Forced)
  60. Language                                 : English
  61. Default                                  : Yes
  62. Forced                                   : Yes
  63. Text #2
  64. ID                                       : 4
  65. Format                                   : UTF-8
  66. Codec ID                                 : S_TEXT/UTF8
  67. Codec ID/Info                            : UTF-8 Plain Text
  68. Duration                                 : 1 h 37 min
  69. Bit rate                                 : 97 b/s
  70. Frame rate                               : 0.224 FPS
  71. Count of elements                        : 1306
  72. Stream size                              : 69.4 KiB (0%)
  73. Title                                    : Arabic
  74. Language                                 : Arabic
  75. Default                                  : No
  76. Forced                                   : No
  77. Text #3
  78. ID                                       : 5
  79. Format                                   : UTF-8
  80. Codec ID                                 : S_TEXT/UTF8
  81. Codec ID/Info                            : UTF-8 Plain Text
  82. Duration                                 : 1 h 37 min
  83. Bit rate                                 : 51 b/s
  84. Frame rate                               : 0.215 FPS
  85. Count of elements                        : 1253
  86. Stream size                              : 36.5 KiB (0%)
  87. Title                                    : Czech
  88. Language                                 : Czech
  89. Default                                  : No
  90. Forced                                   : No
  91. Text #4
  92. ID                                       : 6
  93. Format                                   : UTF-8
  94. Codec ID                                 : S_TEXT/UTF8
  95. Codec ID/Info                            : UTF-8 Plain Text
  96. Duration                                 : 1 h 37 min
  97. Bit rate                                 : 51 b/s
  98. Frame rate                               : 0.211 FPS
  99. Count of elements                        : 1232
  100. Stream size                              : 36.5 KiB (0%)
  101. Title                                    : Danish
  102. Language                                 : Danish
  103. Default                                  : No
  104. Forced                                   : No
  105. Text #5
  106. ID                                       : 7
  107. Format                                   : UTF-8
  108. Codec ID                                 : S_TEXT/UTF8
  109. Codec ID/Info                            : UTF-8 Plain Text
  110. Duration                                 : 1 h 37 min
  111. Bit rate                                 : 53 b/s
  112. Frame rate                               : 0.216 FPS
  113. Count of elements                        : 1257
  114. Stream size                              : 37.8 KiB (0%)
  115. Title                                    : German
  116. Language                                 : German
  117. Default                                  : No
  118. Forced                                   : No
  119. Text #6
  120. ID                                       : 8
  121. Format                                   : UTF-8
  122. Codec ID                                 : S_TEXT/UTF8
  123. Codec ID/Info                            : UTF-8 Plain Text
  124. Duration                                 : 1 h 36 min
  125. Bit rate                                 : 92 b/s
  126. Frame rate                               : 0.230 FPS
  127. Count of elements                        : 1336
  128. Stream size                              : 65.6 KiB (0%)
  129. Title                                    : Modern Greek (1453-)
  130. Language                                 : Greek
  131. Default                                  : No
  132. Forced                                   : No
  133. Text #7
  134. ID                                       : 9
  135. Format                                   : UTF-8
  136. Codec ID                                 : S_TEXT/UTF8
  137. Codec ID/Info                            : UTF-8 Plain Text
  138. Duration                                 : 1 h 37 min
  139. Bit rate                                 : 74 b/s
  140. Frame rate                               : 0.306 FPS
  141. Count of elements                        : 1784
  142. Stream size                              : 52.9 KiB (0%)
  143. Title                                    : English (SDH)
  144. Language                                 : English
  145. Default                                  : No
  146. Forced                                   : No
  147. Text #8
  148. ID                                       : 10
  149. Format                                   : UTF-8
  150. Codec ID                                 : S_TEXT/UTF8
  151. Codec ID/Info                            : UTF-8 Plain Text
  152. Duration                                 : 1 h 37 min
  153. Bit rate                                 : 53 b/s
  154. Frame rate                               : 0.224 FPS
  155. Count of elements                        : 1305
  156. Stream size                              : 38.2 KiB (0%)
  157. Title                                    : Spanish
  158. Language                                 : Spanish
  159. Default                                  : No
  160. Forced                                   : No
  161. Text #9
  162. ID                                       : 11
  163. Format                                   : UTF-8
  164. Codec ID                                 : S_TEXT/UTF8
  165. Codec ID/Info                            : UTF-8 Plain Text
  166. Duration                                 : 1 h 37 min
  167. Bit rate                                 : 53 b/s
  168. Frame rate                               : 0.225 FPS
  169. Count of elements                        : 1312
  170. Stream size                              : 37.9 KiB (0%)
  171. Title                                    : Spanish
  172. Language                                 : Spanish
  173. Default                                  : No
  174. Forced                                   : No
  175. Text #10
  176. ID                                       : 12
  177. Format                                   : UTF-8
  178. Codec ID                                 : S_TEXT/UTF8
  179. Codec ID/Info                            : UTF-8 Plain Text
  180. Duration                                 : 1 h 37 min
  181. Bit rate                                 : 52 b/s
  182. Frame rate                               : 0.197 FPS
  183. Count of elements                        : 1146
  184. Stream size                              : 37.2 KiB (0%)
  185. Title                                    : Finnish
  186. Language                                 : Finnish
  187. Default                                  : No
  188. Forced                                   : No
  189. Text #11
  190. ID                                       : 13
  191. Format                                   : UTF-8
  192. Codec ID                                 : S_TEXT/UTF8
  193. Codec ID/Info                            : UTF-8 Plain Text
  194. Duration                                 : 1 h 37 min
  195. Bit rate                                 : 55 b/s
  196. Frame rate                               : 0.224 FPS
  197. Count of elements                        : 1305
  198. Stream size                              : 39.5 KiB (0%)
  199. Title                                    : Filipino
  200. Language                                 : fil
  201. Default                                  : No
  202. Forced                                   : No
  203. Text #12
  204. ID                                       : 14
  205. Format                                   : UTF-8
  206. Codec ID                                 : S_TEXT/UTF8
  207. Codec ID/Info                            : UTF-8 Plain Text
  208. Duration                                 : 1 h 37 min
  209. Bit rate                                 : 54 b/s
  210. Frame rate                               : 0.211 FPS
  211. Count of elements                        : 1226
  212. Stream size                              : 38.8 KiB (0%)
  213. Title                                    : French
  214. Language                                 : French
  215. Default                                  : No
  216. Forced                                   : No
  217. Text #13
  218. ID                                       : 15
  219. Format                                   : UTF-8
  220. Codec ID                                 : S_TEXT/UTF8
  221. Codec ID/Info                            : UTF-8 Plain Text
  222. Duration                                 : 1 h 37 min
  223. Bit rate                                 : 90 b/s
  224. Frame rate                               : 0.224 FPS
  225. Count of elements                        : 1306
  226. Stream size                              : 64.7 KiB (0%)
  227. Title                                    : Hebrew
  228. Language                                 : Hebrew
  229. Default                                  : No
  230. Forced                                   : No
  231. Text #14
  232. ID                                       : 16
  233. Format                                   : UTF-8
  234. Codec ID                                 : S_TEXT/UTF8
  235. Codec ID/Info                            : UTF-8 Plain Text
  236. Duration                                 : 1 h 37 min
  237. Bit rate                                 : 47 b/s
  238. Frame rate                               : 0.226 FPS
  239. Count of elements                        : 1318
  240. Stream size                              : 33.6 KiB (0%)
  241. Title                                    : Croatian
  242. Language                                 : Croatian
  243. Default                                  : No
  244. Forced                                   : No
  245. Text #15
  246. ID                                       : 17
  247. Format                                   : UTF-8
  248. Codec ID                                 : S_TEXT/UTF8
  249. Codec ID/Info                            : UTF-8 Plain Text
  250. Duration                                 : 1 h 37 min
  251. Bit rate                                 : 54 b/s
  252. Frame rate                               : 0.222 FPS
  253. Count of elements                        : 1296
  254. Stream size                              : 39.0 KiB (0%)
  255. Title                                    : Hungarian
  256. Language                                 : Hungarian
  257. Default                                  : No
  258. Forced                                   : No
  259. Text #16
  260. ID                                       : 18
  261. Format                                   : UTF-8
  262. Codec ID                                 : S_TEXT/UTF8
  263. Codec ID/Info                            : UTF-8 Plain Text
  264. Duration                                 : 1 h 37 min
  265. Bit rate                                 : 54 b/s
  266. Frame rate                               : 0.223 FPS
  267. Count of elements                        : 1302
  268. Stream size                              : 38.4 KiB (0%)
  269. Title                                    : Indonesian
  270. Language                                 : Indonesian
  271. Default                                  : No
  272. Forced                                   : No
  273. Text #17
  274. ID                                       : 19
  275. Format                                   : UTF-8
  276. Codec ID                                 : S_TEXT/UTF8
  277. Codec ID/Info                            : UTF-8 Plain Text
  278. Duration                                 : 1 h 37 min
  279. Bit rate                                 : 51 b/s
  280. Frame rate                               : 0.222 FPS
  281. Count of elements                        : 1292
  282. Stream size                              : 36.4 KiB (0%)
  283. Title                                    : Italian
  284. Language                                 : Italian
  285. Default                                  : No
  286. Forced                                   : No
  287. Text #18
  288. ID                                       : 20
  289. Format                                   : UTF-8
  290. Codec ID                                 : S_TEXT/UTF8
  291. Codec ID/Info                            : UTF-8 Plain Text
  292. Duration                                 : 1 h 37 min
  293. Bit rate                                 : 54 b/s
  294. Frame rate                               : 0.237 FPS
  295. Count of elements                        : 1383
  296. Stream size                              : 38.7 KiB (0%)
  297. Title                                    : Japanese
  298. Language                                 : Japanese
  299. Default                                  : No
  300. Forced                                   : No
  301. Text #19
  302. ID                                       : 21
  303. Format                                   : UTF-8
  304. Codec ID                                 : S_TEXT/UTF8
  305. Codec ID/Info                            : UTF-8 Plain Text
  306. Duration                                 : 1 h 37 min
  307. Bit rate                                 : 74 b/s
  308. Frame rate                               : 0.226 FPS
  309. Count of elements                        : 1316
  310. Stream size                              : 52.8 KiB (0%)
  311. Title                                    : Korean
  312. Language                                 : Korean
  313. Default                                  : No
  314. Forced                                   : No
  315. Text #20
  316. ID                                       : 22
  317. Format                                   : UTF-8
  318. Codec ID                                 : S_TEXT/UTF8
  319. Codec ID/Info                            : UTF-8 Plain Text
  320. Duration                                 : 1 h 32 min
  321. Bit rate                                 : 55 b/s
  322. Frame rate                               : 0.231 FPS
  323. Count of elements                        : 1286
  324. Stream size                              : 37.4 KiB (0%)
  325. Title                                    : Malay (macrolanguage)
  326. Language                                 : Malay
  327. Default                                  : No
  328. Forced                                   : No
  329. Text #21
  330. ID                                       : 23
  331. Format                                   : UTF-8
  332. Codec ID                                 : S_TEXT/UTF8
  333. Codec ID/Info                            : UTF-8 Plain Text
  334. Duration                                 : 1 h 37 min
  335. Bit rate                                 : 51 b/s
  336. Frame rate                               : 0.193 FPS
  337. Count of elements                        : 1125
  338. Stream size                              : 36.9 KiB (0%)
  339. Title                                    : Norwegian Bokm?l
  340. Language                                 : Norwegian Bokmal
  341. Default                                  : No
  342. Forced                                   : No
  343. Text #22
  344. ID                                       : 24
  345. Format                                   : UTF-8
  346. Codec ID                                 : S_TEXT/UTF8
  347. Codec ID/Info                            : UTF-8 Plain Text
  348. Duration                                 : 1 h 37 min
  349. Bit rate                                 : 52 b/s
  350. Frame rate                               : 0.213 FPS
  351. Count of elements                        : 1244
  352. Stream size                              : 37.7 KiB (0%)
  353. Title                                    : Dutch
  354. Language                                 : Dutch
  355. Default                                  : No
  356. Forced                                   : No
  357. Text #23
  358. ID                                       : 25
  359. Format                                   : UTF-8
  360. Codec ID                                 : S_TEXT/UTF8
  361. Codec ID/Info                            : UTF-8 Plain Text
  362. Duration                                 : 1 h 37 min
  363. Bit rate                                 : 50 b/s
  364. Frame rate                               : 0.223 FPS
  365. Count of elements                        : 1298
  366. Stream size                              : 35.7 KiB (0%)
  367. Title                                    : Polish
  368. Language                                 : Polish
  369. Default                                  : No
  370. Forced                                   : No
  371. Text #24
  372. ID                                       : 26
  373. Format                                   : UTF-8
  374. Codec ID                                 : S_TEXT/UTF8
  375. Codec ID/Info                            : UTF-8 Plain Text
  376. Duration                                 : 1 h 33 min
  377. Bit rate                                 : 56 b/s
  378. Frame rate                               : 0.234 FPS
  379. Count of elements                        : 1305
  380. Stream size                              : 38.5 KiB (0%)
  381. Title                                    : Portuguese
  382. Language                                 : Portuguese
  383. Default                                  : No
  384. Forced                                   : No
  385. Text #25
  386. ID                                       : 27
  387. Format                                   : UTF-8
  388. Codec ID                                 : S_TEXT/UTF8
  389. Codec ID/Info                            : UTF-8 Plain Text
  390. Duration                                 : 1 h 36 min
  391. Bit rate                                 : 56 b/s
  392. Frame rate                               : 0.219 FPS
  393. Count of elements                        : 1275
  394. Stream size                              : 39.8 KiB (0%)
  395. Title                                    : Portuguese
  396. Language                                 : Portuguese
  397. Default                                  : No
  398. Forced                                   : No
  399. Text #26
  400. ID                                       : 28
  401. Format                                   : UTF-8
  402. Codec ID                                 : S_TEXT/UTF8
  403. Codec ID/Info                            : UTF-8 Plain Text
  404. Duration                                 : 1 h 37 min
  405. Bit rate                                 : 59 b/s
  406. Frame rate                               : 0.211 FPS
  407. Count of elements                        : 1228
  408. Stream size                              : 42.3 KiB (0%)
  409. Title                                    : Romanian
  410. Language                                 : Romanian
  411. Default                                  : No
  412. Forced                                   : No
  413. Text #27
  414. ID                                       : 29
  415. Format                                   : UTF-8
  416. Codec ID                                 : S_TEXT/UTF8
  417. Codec ID/Info                            : UTF-8 Plain Text
  418. Duration                                 : 1 h 37 min
  419. Bit rate                                 : 91 b/s
  420. Frame rate                               : 0.224 FPS
  421. Count of elements                        : 1304
  422. Stream size                              : 65.3 KiB (0%)
  423. Title                                    : Russian
  424. Language                                 : Russian
  425. Default                                  : No
  426. Forced                                   : No
  427. Text #28
  428. ID                                       : 30
  429. Format                                   : UTF-8
  430. Codec ID                                 : S_TEXT/UTF8
  431. Codec ID/Info                            : UTF-8 Plain Text
  432. Duration                                 : 1 h 37 min
  433. Bit rate                                 : 53 b/s
  434. Frame rate                               : 0.212 FPS
  435. Count of elements                        : 1236
  436. Stream size                              : 37.7 KiB (0%)
  437. Title                                    : Swedish
  438. Language                                 : Swedish
  439. Default                                  : No
  440. Forced                                   : No
  441. Text #29
  442. ID                                       : 31
  443. Format                                   : UTF-8
  444. Codec ID                                 : S_TEXT/UTF8
  445. Codec ID/Info                            : UTF-8 Plain Text
  446. Duration                                 : 1 h 37 min
  447. Bit rate                                 : 152 b/s
  448. Frame rate                               : 0.224 FPS
  449. Count of elements                        : 1305
  450. Stream size                              : 108 KiB (0%)
  451. Title                                    : Thai
  452. Language                                 : Thai
  453. Default                                  : No
  454. Forced                                   : No
  455. Text #30
  456. ID                                       : 32
  457. Format                                   : UTF-8
  458. Codec ID                                 : S_TEXT/UTF8
  459. Codec ID/Info                            : UTF-8 Plain Text
  460. Duration                                 : 1 h 37 min
  461. Bit rate                                 : 54 b/s
  462. Frame rate                               : 0.191 FPS
  463. Count of elements                        : 1116
  464. Stream size                              : 38.9 KiB (0%)
  465. Title                                    : Turkish
  466. Language                                 : Turkish
  467. Default                                  : No
  468. Forced                                   : No
  469. Text #31
  470. ID                                       : 33
  471. Format                                   : UTF-8
  472. Codec ID                                 : S_TEXT/UTF8
  473. Codec ID/Info                            : UTF-8 Plain Text
  474. Duration                                 : 1 h 37 min
  475. Bit rate                                 : 86 b/s
  476. Frame rate                               : 0.223 FPS
  477. Count of elements                        : 1302
  478. Stream size                              : 61.2 KiB (0%)
  479. Title                                    : Ukrainian
  480. Language                                 : Ukrainian
  481. Default                                  : No
  482. Forced                                   : No
  483. Text #32
  484. ID                                       : 34
  485. Format                                   : UTF-8
  486. Codec ID                                 : S_TEXT/UTF8
  487. Codec ID/Info                            : UTF-8 Plain Text
  488. Duration                                 : 1 h 37 min
  489. Bit rate                                 : 76 b/s
  490. Frame rate                               : 0.235 FPS
  491. Count of elements                        : 1371
  492. Stream size                              : 54.7 KiB (0%)
  493. Title                                    : Vietnamese
  494. Language                                 : Vietnamese
  495. Default                                  : No
  496. Forced                                   : No
  497. Text #33
  498. ID                                       : 35
  499. Format                                   : UTF-8
  500. Codec ID                                 : S_TEXT/UTF8
  501. Codec ID/Info                            : UTF-8 Plain Text
  502. Duration                                 : 1 h 37 min
  503. Bit rate                                 : 58 b/s
  504. Frame rate                               : 0.226 FPS
  505. Count of elements                        : 1315
  506. Stream size                              : 41.6 KiB (0%)
  507. Title                                    : Simplified, Chinese
  508. Language                                 : Chinese
  509. Default                                  : No
  510. Forced                                   : No
  511. Text #34
  512. ID                                       : 36
  513. Format                                   : UTF-8
  514. Codec ID                                 : S_TEXT/UTF8
  515. Codec ID/Info                            : UTF-8 Plain Text
  516. Duration                                 : 1 h 37 min
  517. Bit rate                                 : 56 b/s
  518. Frame rate                               : 0.223 FPS
  519. Count of elements                        : 1300
  520. Stream size                              : 40.0 KiB (0%)
  521. Title                                    : Traditional, Chinese
  522. Language                                 : Chinese
  523. Default                                  : No
  524. Forced                                   : No
  525. Menu
  526. 00:00:00.000                             : en:Part 01
  527. 01:33:39.450                             : en:Credits
复制代码











回复

使用道具 举报

蓝光币
103
发表于 2023-1-12 23:13:01 | 显示全部楼层

这东西我收了!谢谢楼主!蓝光电影网真好!
回复 支持 反对

使用道具 举报

懒得打字嘛,点击右侧快捷回复 【右侧内容,后台自定义】
您需要登录后才可以回帖 登录 | 立即加入

本版积分规则

Archiver|小黑屋| 蓝光电影网 |网站地图

Copyright © 2021 Comsenz Inc. Powered by 蓝光电影网

蓝光电影网

本站内容由用户自主分享和转载自互联网,转载目的在于传递更多信息,并不代表本网赞同其观点和对其真实性负责。

如有侵权、违反国家法律政策行为,请联系我们,我们会第一时间及时清除和处理!

举报反馈邮箱:4k1080.com@gmail.com

快速回复 返回顶部 返回列表