找回密码

蓝光电影网

查看: 83|回复: 1

[2160p-WEB] 徒劳愚蠢的手势[中文字幕].A.Futile.And.Stupid.Gesture.2018.2160p.NF.WEB-DL.x265.10bit.SDR.DDP5.1-XEBEC 8.88GB

[复制链接]
蓝光币
1084
发表于 2023-1-12 16:18:33 | 显示全部楼层 |阅读模式


◎标  题 徒劳愚蠢的手势
◎译  名 無用之舉(美)
◎片  名 A Futile & Stupid Gesture
◎年  代 2018
◎产  地 美国
◎类  别 笑剧 / 列传
◎语  言 英语
◎上映日期 2018-01-24(圣丹斯电影节)
◎IMDb评分 6.8/10 (15120人评价)
◎IMDb链接 https://www.imdb.com/title/tt5566790/
◎豆瓣评分 6.7/10 (593人评价)
◎豆瓣链接 https://movie.douban.com/subject/26765407/
◎导  演 大卫·韦恩 David Wain
◎编  剧 约翰·阿布德 John Aboud
       迈克尔·科尔顿 Michael Colton
◎演  员 多姆纳尔·格里森 Domhnall Gleeson
       威尔·福特 Will Forte
       托马斯·列农 Thomas Lennon
       娜塔莎·雷昂 Natasha Lyonne
       赛斯·格林 Seth Green
       艾维·约斯特 Elvy Yost
       乔恩·戴利 Jon Daly
       乔尔·麦克哈尔 Joel McHale
       马特·沃尔什 Matt Walsh
       马丁·马尔 Martin Mull
       埃米·罗森 Emmy Rossum
       杰姬·托恩 Jackie Tohn
       约翰·甘柏林 John Gemberling
       梅拉·罗希特·库姆巴尼 Meera Rohit Kumbhani
       克里斯·里德 Chris Redd
       琳赛·卡夫 Lindsey Kraft
◎标  签 列传 / 笑剧 / 美国 / 2018 / Netflix / 剧情 / 美国电影 / 自力
◎简  介
    多姆纳尔·格里森行将投身笑剧《徒劳愚蠢的手势》,同伴美国男演员威尔·福特。影片将再现国家嘲讽文社从建立到壮盛这一时代的故事。影片改编自同名小说,大卫·韦恩等人执导,将由流媒体Netflix在未来择日刊行。
  1. Video
  2. ID                                       : 1
  3. Format                                   : HEVC
  4. Format/Info                              : High Efficiency Video Coding
  5. Format profile                           : Main [email protected]@Main
  6. Codec ID                                 : V_MPEGH/ISO/HEVC
  7. Duration                                 : 1 h 41 min
  8. Bit rate                                 : 11.8 Mb/s
  9. Width                                    : 3 840 pixels
  10. Height                                   : 2 160 pixels
  11. Display aspect ratio                     : 16:9
  12. Frame rate mode                          : Constant
  13. Frame rate                               : 23.976 (24000/1001) FPS
  14. Color space                              : YUV
  15. Chroma subsampling                       : 4:2:0
  16. Bit depth                                : 10 bits
  17. Bits/(Pixel*Frame)                       : 0.059
  18. Stream size                              : 8.42 GiB (95%)
  19. Default                                  : Yes
  20. Forced                                   : No
  21. Color range                              : Limited
  22. Color primaries                          : BT.709
  23. Transfer characteristics                 : BT.709
  24. Matrix coefficients                      : BT.709
  25. Audio
  26. ID                                       : 2
  27. Format                                   : E-AC-3
  28. Format/Info                              : Enhanced AC-3
  29. Commercial name                          : Dolby Digital Plus
  30. Codec ID                                 : A_EAC3
  31. Duration                                 : 1 h 41 min
  32. Bit rate mode                            : Constant
  33. Bit rate                                 : 640 kb/s
  34. Channel(s)                               : 6 channels
  35. Channel layout                           : L R C LFE Ls Rs
  36. Sampling rate                            : 48.0 kHz
  37. Frame rate                               : 31.250 FPS (1536 SPF)
  38. Compression mode                         : Lossy
  39. Stream size                              : 467 MiB (5%)
  40. Title                                    : English
  41. Language                                 : English
  42. Service kind                             : Complete Main
  43. Default                                  : Yes
  44. Forced                                   : No
  45. Text #1
  46. ID                                       : 3
  47. Format                                   : UTF-8
  48. Codec ID                                 : S_TEXT/UTF8
  49. Codec ID/Info                            : UTF-8 Plain Text
  50. Duration                                 : 1 h 37 min
  51. Bit rate                                 : 146 b/s
  52. Frame rate                               : 0.310 FPS
  53. Count of elements                        : 1822
  54. Stream size                              : 105 KiB (0%)
  55. Title                                    : Arabic
  56. Language                                 : Arabic
  57. Default                                  : No
  58. Forced                                   : No
  59. Text #2
  60. ID                                       : 4
  61. Format                                   : UTF-8
  62. Codec ID                                 : S_TEXT/UTF8
  63. Codec ID/Info                            : UTF-8 Plain Text
  64. Duration                                 : 1 h 41 min
  65. Bit rate                                 : 79 b/s
  66. Frame rate                               : 0.271 FPS
  67. Count of elements                        : 1646
  68. Stream size                              : 59.2 KiB (0%)
  69. Title                                    : Danish
  70. Language                                 : Danish
  71. Default                                  : No
  72. Forced                                   : No
  73. Text #3
  74. ID                                       : 5
  75. Format                                   : UTF-8
  76. Codec ID                                 : S_TEXT/UTF8
  77. Codec ID/Info                            : UTF-8 Plain Text
  78. Duration                                 : 1 h 41 min
  79. Bit rate                                 : 74 b/s
  80. Frame rate                               : 0.294 FPS
  81. Count of elements                        : 1785
  82. Stream size                              : 55.5 KiB (0%)
  83. Title                                    : German
  84. Language                                 : German
  85. Default                                  : No
  86. Forced                                   : No
  87. Text #4
  88. ID                                       : 6
  89. Format                                   : UTF-8
  90. Codec ID                                 : S_TEXT/UTF8
  91. Codec ID/Info                            : UTF-8 Plain Text
  92. Duration                                 : 1 h 41 min
  93. Bit rate                                 : 137 b/s
  94. Frame rate                               : 0.296 FPS
  95. Count of elements                        : 1801
  96. Stream size                              : 102 KiB (0%)
  97. Title                                    : Modern Greek (1453-)
  98. Language                                 : Greek
  99. Default                                  : No
  100. Forced                                   : No
  101. Text #5
  102. ID                                       : 7
  103. Format                                   : UTF-8
  104. Codec ID                                 : S_TEXT/UTF8
  105. Codec ID/Info                            : UTF-8 Plain Text
  106. Duration                                 : 1 h 41 min
  107. Bit rate                                 : 95 b/s
  108. Frame rate                               : 0.326 FPS
  109. Count of elements                        : 1979
  110. Stream size                              : 70.7 KiB (0%)
  111. Title                                    : English (SDH)
  112. Language                                 : English
  113. Default                                  : No
  114. Forced                                   : No
  115. Text #6
  116. ID                                       : 8
  117. Format                                   : UTF-8
  118. Codec ID                                 : S_TEXT/UTF8
  119. Codec ID/Info                            : UTF-8 Plain Text
  120. Duration                                 : 1 h 41 min
  121. Bit rate                                 : 75 b/s
  122. Frame rate                               : 0.300 FPS
  123. Count of elements                        : 1821
  124. Stream size                              : 55.7 KiB (0%)
  125. Title                                    : Spanish
  126. Language                                 : Spanish
  127. Default                                  : No
  128. Forced                                   : No
  129. Text #7
  130. ID                                       : 9
  131. Format                                   : UTF-8
  132. Codec ID                                 : S_TEXT/UTF8
  133. Codec ID/Info                            : UTF-8 Plain Text
  134. Duration                                 : 1 h 41 min
  135. Bit rate                                 : 85 b/s
  136. Frame rate                               : 0.295 FPS
  137. Count of elements                        : 1795
  138. Stream size                              : 63.7 KiB (0%)
  139. Title                                    : Spanish
  140. Language                                 : Spanish
  141. Default                                  : No
  142. Forced                                   : No
  143. Text #8
  144. ID                                       : 10
  145. Format                                   : UTF-8
  146. Codec ID                                 : S_TEXT/UTF8
  147. Codec ID/Info                            : UTF-8 Plain Text
  148. Duration                                 : 1 h 41 min
  149. Bit rate                                 : 76 b/s
  150. Frame rate                               : 0.290 FPS
  151. Count of elements                        : 1760
  152. Stream size                              : 56.8 KiB (0%)
  153. Title                                    : Finnish
  154. Language                                 : Finnish
  155. Default                                  : No
  156. Forced                                   : No
  157. Text #9
  158. ID                                       : 11
  159. Format                                   : UTF-8
  160. Codec ID                                 : S_TEXT/UTF8
  161. Codec ID/Info                            : UTF-8 Plain Text
  162. Duration                                 : 1 h 41 min
  163. Bit rate                                 : 75 b/s
  164. Frame rate                               : 0.287 FPS
  165. Count of elements                        : 1744
  166. Stream size                              : 55.7 KiB (0%)
  167. Title                                    : French
  168. Language                                 : French
  169. Default                                  : No
  170. Forced                                   : No
  171. Text #10
  172. ID                                       : 12
  173. Format                                   : UTF-8
  174. Codec ID                                 : S_TEXT/UTF8
  175. Codec ID/Info                            : UTF-8 Plain Text
  176. Duration                                 : 1 h 41 min
  177. Bit rate                                 : 123 b/s
  178. Frame rate                               : 0.294 FPS
  179. Count of elements                        : 1785
  180. Stream size                              : 91.7 KiB (0%)
  181. Title                                    : Hebrew
  182. Language                                 : Hebrew
  183. Default                                  : No
  184. Forced                                   : No
  185. Text #11
  186. ID                                       : 13
  187. Format                                   : UTF-8
  188. Codec ID                                 : S_TEXT/UTF8
  189. Codec ID/Info                            : UTF-8 Plain Text
  190. Duration                                 : 1 h 41 min
  191. Bit rate                                 : 76 b/s
  192. Frame rate                               : 0.288 FPS
  193. Count of elements                        : 1752
  194. Stream size                              : 57.0 KiB (0%)
  195. Title                                    : Italian
  196. Language                                 : Italian
  197. Default                                  : No
  198. Forced                                   : No
  199. Text #12
  200. ID                                       : 14
  201. Format                                   : UTF-8
  202. Codec ID                                 : S_TEXT/UTF8
  203. Codec ID/Info                            : UTF-8 Plain Text
  204. Duration                                 : 1 h 41 min
  205. Bit rate                                 : 72 b/s
  206. Frame rate                               : 0.290 FPS
  207. Count of elements                        : 1762
  208. Stream size                              : 54.1 KiB (0%)
  209. Title                                    : Japanese
  210. Language                                 : Japanese
  211. Default                                  : No
  212. Forced                                   : No
  213. Text #13
  214. ID                                       : 15
  215. Format                                   : UTF-8
  216. Codec ID                                 : S_TEXT/UTF8
  217. Codec ID/Info                            : UTF-8 Plain Text
  218. Duration                                 : 1 h 41 min
  219. Bit rate                                 : 86 b/s
  220. Frame rate                               : 0.300 FPS
  221. Count of elements                        : 1820
  222. Stream size                              : 63.9 KiB (0%)
  223. Title                                    : Korean
  224. Language                                 : Korean
  225. Default                                  : No
  226. Forced                                   : No
  227. Text #14
  228. ID                                       : 16
  229. Format                                   : UTF-8
  230. Codec ID                                 : S_TEXT/UTF8
  231. Codec ID/Info                            : UTF-8 Plain Text
  232. Duration                                 : 1 h 41 min
  233. Bit rate                                 : 70 b/s
  234. Frame rate                               : 0.286 FPS
  235. Count of elements                        : 1738
  236. Stream size                              : 52.4 KiB (0%)
  237. Title                                    : Norwegian Bokm?l
  238. Language                                 : Norwegian Bokmal
  239. Default                                  : No
  240. Forced                                   : No
  241. Text #15
  242. ID                                       : 17
  243. Format                                   : UTF-8
  244. Codec ID                                 : S_TEXT/UTF8
  245. Codec ID/Info                            : UTF-8 Plain Text
  246. Duration                                 : 1 h 41 min
  247. Bit rate                                 : 75 b/s
  248. Frame rate                               : 0.253 FPS
  249. Count of elements                        : 1536
  250. Stream size                              : 56.2 KiB (0%)
  251. Title                                    : Dutch
  252. Language                                 : Dutch
  253. Default                                  : No
  254. Forced                                   : No
  255. Text #16
  256. ID                                       : 18
  257. Format                                   : UTF-8
  258. Codec ID                                 : S_TEXT/UTF8
  259. Codec ID/Info                            : UTF-8 Plain Text
  260. Duration                                 : 1 h 41 min
  261. Bit rate                                 : 69 b/s
  262. Frame rate                               : 0.282 FPS
  263. Count of elements                        : 1714
  264. Stream size                              : 51.7 KiB (0%)
  265. Title                                    : Polish
  266. Language                                 : Polish
  267. Default                                  : No
  268. Forced                                   : No
  269. Text #17
  270. ID                                       : 19
  271. Format                                   : UTF-8
  272. Codec ID                                 : S_TEXT/UTF8
  273. Codec ID/Info                            : UTF-8 Plain Text
  274. Duration                                 : 1 h 41 min
  275. Bit rate                                 : 79 b/s
  276. Frame rate                               : 0.296 FPS
  277. Count of elements                        : 1796
  278. Stream size                              : 59.2 KiB (0%)
  279. Title                                    : Portuguese
  280. Language                                 : Portuguese
  281. Default                                  : No
  282. Forced                                   : No
  283. Text #18
  284. ID                                       : 20
  285. Format                                   : UTF-8
  286. Codec ID                                 : S_TEXT/UTF8
  287. Codec ID/Info                            : UTF-8 Plain Text
  288. Duration                                 : 1 h 41 min
  289. Bit rate                                 : 74 b/s
  290. Frame rate                               : 0.295 FPS
  291. Count of elements                        : 1795
  292. Stream size                              : 54.9 KiB (0%)
  293. Title                                    : Portuguese
  294. Language                                 : Portuguese
  295. Default                                  : No
  296. Forced                                   : No
  297. Text #19
  298. ID                                       : 21
  299. Format                                   : UTF-8
  300. Codec ID                                 : S_TEXT/UTF8
  301. Codec ID/Info                            : UTF-8 Plain Text
  302. Duration                                 : 1 h 38 min
  303. Bit rate                                 : 83 b/s
  304. Frame rate                               : 0.306 FPS
  305. Count of elements                        : 1801
  306. Stream size                              : 59.8 KiB (0%)
  307. Title                                    : Romanian
  308. Language                                 : Romanian
  309. Default                                  : No
  310. Forced                                   : No
  311. Text #20
  312. ID                                       : 22
  313. Format                                   : UTF-8
  314. Codec ID                                 : S_TEXT/UTF8
  315. Codec ID/Info                            : UTF-8 Plain Text
  316. Duration                                 : 1 h 41 min
  317. Bit rate                                 : 74 b/s
  318. Frame rate                               : 0.252 FPS
  319. Count of elements                        : 1534
  320. Stream size                              : 55.0 KiB (0%)
  321. Title                                    : Swedish
  322. Language                                 : Swedish
  323. Default                                  : No
  324. Forced                                   : No
  325. Text #21
  326. ID                                       : 23
  327. Format                                   : UTF-8
  328. Codec ID                                 : S_TEXT/UTF8
  329. Codec ID/Info                            : UTF-8 Plain Text
  330. Duration                                 : 1 h 41 min
  331. Bit rate                                 : 185 b/s
  332. Frame rate                               : 0.300 FPS
  333. Count of elements                        : 1823
  334. Stream size                              : 138 KiB (0%)
  335. Title                                    : Thai
  336. Language                                 : Thai
  337. Default                                  : No
  338. Forced                                   : No
  339. Text #22
  340. ID                                       : 24
  341. Format                                   : UTF-8
  342. Codec ID                                 : S_TEXT/UTF8
  343. Codec ID/Info                            : UTF-8 Plain Text
  344. Duration                                 : 1 h 41 min
  345. Bit rate                                 : 84 b/s
  346. Frame rate                               : 0.302 FPS
  347. Count of elements                        : 1834
  348. Stream size                              : 63.0 KiB (0%)
  349. Title                                    : Turkish
  350. Language                                 : Turkish
  351. Default                                  : No
  352. Forced                                   : No
  353. Text #23
  354. ID                                       : 25
  355. Format                                   : UTF-8
  356. Codec ID                                 : S_TEXT/UTF8
  357. Codec ID/Info                            : UTF-8 Plain Text
  358. Duration                                 : 1 h 41 min
  359. Bit rate                                 : 84 b/s
  360. Frame rate                               : 0.300 FPS
  361. Count of elements                        : 1823
  362. Stream size                              : 62.4 KiB (0%)
  363. Title                                    : Simplified, Chinese
  364. Language                                 : Chinese
  365. Default                                  : No
  366. Forced                                   : No
  367. Text #24
  368. ID                                       : 26
  369. Format                                   : UTF-8
  370. Codec ID                                 : S_TEXT/UTF8
  371. Codec ID/Info                            : UTF-8 Plain Text
  372. Duration                                 : 1 h 41 min
  373. Bit rate                                 : 87 b/s
  374. Frame rate                               : 0.299 FPS
  375. Count of elements                        : 1818
  376. Stream size                              : 64.5 KiB (0%)
  377. Title                                    : Traditional, Chinese
  378. Language                                 : Chinese
  379. Default                                  : No
  380. Forced                                   : No
  381. Menu
  382. 00:00:00.000                             : en:Part 01
  383. 01:38:12.450                             : en:Credits
复制代码











回复

使用道具 举报

蓝光币
34
发表于 2023-1-12 21:01:07 | 显示全部楼层
楼主发贴辛苦了,谢谢楼主分享!我觉得蓝光电影网是注册对了!
回复 支持 反对

使用道具 举报

懒得打字嘛,点击右侧快捷回复 【右侧内容,后台自定义】
您需要登录后才可以回帖 登录 | 立即加入

本版积分规则

Archiver|小黑屋| 蓝光电影网 |网站地图

Copyright © 2021 Comsenz Inc. Powered by 蓝光电影网

蓝光电影网

本站内容由用户自主分享和转载自互联网,转载目的在于传递更多信息,并不代表本网赞同其观点和对其真实性负责。

如有侵权、违反国家法律政策行为,请联系我们,我们会第一时间及时清除和处理!

举报反馈邮箱:[email protected]

快速回复 返回顶部 返回列表