找回密码

蓝光电影网

查看: 95|回复: 0

[2160p-WEB] 见爱不怪[中文字幕].Alex.Strangelove.2018.2160p.NF.WEB-DL.x265.10bit.SDR.DDP5.1-XEBEC 11.97GB

[复制链接]
蓝光币
1082
发表于 2023-1-12 16:18:34 | 显示全部楼层 |阅读模式


◎标  题 见爱不怪
◎译  名 奇爱力克斯(台) / 奇爱性醒觉 / 爱怪不怪
◎片  名 Alex Strangelove
◎年  代 2018
◎产  地 美国
◎类  别 笑剧 / 同性
◎语  言 英语
◎上映日期 2018-04-16(旧金山电影节) / 2018-06-08(美国)
◎IMDb评分 6.3/10 (16590人评价)
◎IMDb链接 https://www.imdb.com/title/tt5688996/
◎豆瓣评分 6.6/10 (2044人评价)
◎豆瓣链接 https://movie.douban.com/subject/26790564/
◎片  长 99分钟
◎导  演 克雷格·约翰逊 Craig Johnson
◎编  剧 克雷格·约翰逊 Craig Johnson
◎演  员 丹尼尔·多尼 Daniel Doheny
       马德琳·温斯坦 Madeline Weinstein
       安东尼奥·马尔齐亚莱 Antonio Marziale
       丹尼尔·祖尔格哈德利 Daniel Zolghadri
       尼克·多达尼 Nik Dodani
       安妮秋 Annie Q.
       凯瑟琳·厄布 Kathryn Erbe
       乔安娜·阿德勒 Joanna Adler
       威廉·罗格斯戴尔 William Ragsdale
       弗莱德·赫钦格 Fred Hechinger
       伊莎贝拉·阿玛拉 Isabella Amara
       Sophie Faulkenberry Sophie Faulkenberry
       Dante Costabile Dante Costabile
       Adam Cantor Adam Cantor
       大卫·菲耶罗 David Fierro
       洁西·詹姆斯·凯特尔 Jesse James Keitel
       Khail Bryant Khail Bryant
       Aidan Pierce Brennan Aidan Pierce Brennan
       Edward Sass III Edward Sass III
       Anthony Pierini Anthony Pierini
       谢内尔·埃德蒙兹 Shenell Edmonds
       艾登·梅耶里 Ayden Mayeri
       Olivia Rose Eierman Olivia Rose Eierman
       Danielle Ferrier Danielle Ferrier
       Kaydence Frank Kaydence Frank
       Bj Gruber Bj Gruber
       Morgan Page Morgan Page
       贾尔·吴 Jair Woo
◎标  签 同性 / 青春 / 美国 / 笑剧 / LGBT / 长大 / 2018 / Netflix
◎简  介
    亚里克斯(丹尼尔·多埃尼 Daniel Doheny 饰)对自己的高中生活感应非常的满足,他是全校公认的劣等生,深受教员的爱好和同学们的崇敬,在好友之间有着极高的人气。不但如此,亚里克斯还交往了一位名叫克莱尔的(马德琳·温斯坦 Madeline Weinstein 饰)女友,克莱尔在校园里也是校花级此外大美男,每当她和亚里克斯出双入对之时,旁人城市赞叹他们简直是天作之合。                                                                      就在亚里克斯和克莱尔决议开启通往欢畅的伊甸园的大门之时,一个名为埃利奥特(安东尼奥·马尔齐亚莱 Antonio Marziale 饰)的汉子出现在了亚里克斯的生命力。埃利奥特对自己对于亚里克斯的喜好直抒己见,虽然亚里克斯对此感应很是的困惑,却没有厌恶的情感。
  1. Video
  2. ID                                       : 1
  3. Format                                   : HEVC
  4. Format/Info                              : High Efficiency Video Coding
  5. Format profile                           : Main [email protected]@Main
  6. Codec ID                                 : V_MPEGH/ISO/HEVC
  7. Duration                                 : 1 h 39 min
  8. Bit rate                                 : 16.5 Mb/s
  9. Width                                    : 3 840 pixels
  10. Height                                   : 2 160 pixels
  11. Display aspect ratio                     : 16:9
  12. Frame rate mode                          : Constant
  13. Frame rate                               : 23.976 (24000/1001) FPS
  14. Color space                              : YUV
  15. Chroma subsampling                       : 4:2:0
  16. Bit depth                                : 10 bits
  17. Bits/(Pixel*Frame)                       : 0.083
  18. Stream size                              : 11.5 GiB (96%)
  19. Default                                  : Yes
  20. Forced                                   : No
  21. Color range                              : Limited
  22. Color primaries                          : BT.709
  23. Transfer characteristics                 : BT.709
  24. Matrix coefficients                      : BT.709
  25. Audio
  26. ID                                       : 2
  27. Format                                   : E-AC-3
  28. Format/Info                              : Enhanced AC-3
  29. Commercial name                          : Dolby Digital Plus
  30. Codec ID                                 : A_EAC3
  31. Duration                                 : 1 h 39 min
  32. Bit rate mode                            : Constant
  33. Bit rate                                 : 640 kb/s
  34. Channel(s)                               : 6 channels
  35. Channel layout                           : L R C LFE Ls Rs
  36. Sampling rate                            : 48.0 kHz
  37. Frame rate                               : 31.250 FPS (1536 SPF)
  38. Compression mode                         : Lossy
  39. Stream size                              : 456 MiB (4%)
  40. Title                                    : English
  41. Language                                 : English
  42. Service kind                             : Complete Main
  43. Default                                  : Yes
  44. Forced                                   : No
  45. Text #1
  46. ID                                       : 3
  47. Format                                   : UTF-8
  48. Codec ID                                 : S_TEXT/UTF8
  49. Codec ID/Info                            : UTF-8 Plain Text
  50. Duration                                 : 1 h 32 min
  51. Bit rate                                 : 106 b/s
  52. Frame rate                               : 0.273 FPS
  53. Count of elements                        : 1514
  54. Stream size                              : 71.9 KiB (0%)
  55. Title                                    : Arabic
  56. Language                                 : Arabic
  57. Default                                  : No
  58. Forced                                   : No
  59. Text #2
  60. ID                                       : 4
  61. Format                                   : UTF-8
  62. Codec ID                                 : S_TEXT/UTF8
  63. Codec ID/Info                            : UTF-8 Plain Text
  64. Duration                                 : 1 h 34 min
  65. Bit rate                                 : 60 b/s
  66. Frame rate                               : 0.262 FPS
  67. Count of elements                        : 1481
  68. Stream size                              : 41.9 KiB (0%)
  69. Title                                    : Danish
  70. Language                                 : Danish
  71. Default                                  : No
  72. Forced                                   : No
  73. Text #3
  74. ID                                       : 5
  75. Format                                   : UTF-8
  76. Codec ID                                 : S_TEXT/UTF8
  77. Codec ID/Info                            : UTF-8 Plain Text
  78. Duration                                 : 1 h 34 min
  79. Bit rate                                 : 56 b/s
  80. Frame rate                               : 0.263 FPS
  81. Count of elements                        : 1487
  82. Stream size                              : 39.2 KiB (0%)
  83. Title                                    : German
  84. Language                                 : German
  85. Default                                  : No
  86. Forced                                   : No
  87. Text #4
  88. ID                                       : 6
  89. Format                                   : UTF-8
  90. Codec ID                                 : S_TEXT/UTF8
  91. Codec ID/Info                            : UTF-8 Plain Text
  92. Duration                                 : 1 h 34 min
  93. Bit rate                                 : 94 b/s
  94. Frame rate                               : 0.252 FPS
  95. Count of elements                        : 1425
  96. Stream size                              : 65.0 KiB (0%)
  97. Title                                    : Modern Greek (1453-)
  98. Language                                 : Greek
  99. Default                                  : No
  100. Forced                                   : No
  101. Text #5
  102. ID                                       : 7
  103. Format                                   : UTF-8
  104. Codec ID                                 : S_TEXT/UTF8
  105. Codec ID/Info                            : UTF-8 Plain Text
  106. Duration                                 : 1 h 32 min
  107. Bit rate                                 : 77 b/s
  108. Frame rate                               : 0.329 FPS
  109. Count of elements                        : 1824
  110. Stream size                              : 52.7 KiB (0%)
  111. Title                                    : English (SDH)
  112. Language                                 : English
  113. Default                                  : No
  114. Forced                                   : No
  115. Text #6
  116. ID                                       : 8
  117. Format                                   : UTF-8
  118. Codec ID                                 : S_TEXT/UTF8
  119. Codec ID/Info                            : UTF-8 Plain Text
  120. Duration                                 : 1 h 34 min
  121. Bit rate                                 : 58 b/s
  122. Frame rate                               : 0.264 FPS
  123. Count of elements                        : 1490
  124. Stream size                              : 40.0 KiB (0%)
  125. Title                                    : Spanish
  126. Language                                 : Spanish
  127. Default                                  : No
  128. Forced                                   : No
  129. Text #7
  130. ID                                       : 9
  131. Format                                   : UTF-8
  132. Codec ID                                 : S_TEXT/UTF8
  133. Codec ID/Info                            : UTF-8 Plain Text
  134. Duration                                 : 1 h 34 min
  135. Bit rate                                 : 53 b/s
  136. Frame rate                               : 0.268 FPS
  137. Count of elements                        : 1512
  138. Stream size                              : 37.1 KiB (0%)
  139. Title                                    : Spanish
  140. Language                                 : Spanish
  141. Default                                  : No
  142. Forced                                   : No
  143. Text #8
  144. ID                                       : 10
  145. Format                                   : UTF-8
  146. Codec ID                                 : S_TEXT/UTF8
  147. Codec ID/Info                            : UTF-8 Plain Text
  148. Duration                                 : 1 h 34 min
  149. Bit rate                                 : 57 b/s
  150. Frame rate                               : 0.251 FPS
  151. Count of elements                        : 1418
  152. Stream size                              : 39.3 KiB (0%)
  153. Title                                    : Finnish
  154. Language                                 : Finnish
  155. Default                                  : No
  156. Forced                                   : No
  157. Text #9
  158. ID                                       : 11
  159. Format                                   : UTF-8
  160. Codec ID                                 : S_TEXT/UTF8
  161. Codec ID/Info                            : UTF-8 Plain Text
  162. Duration                                 : 1 h 38 min
  163. Bit rate                                 : 58 b/s
  164. Frame rate                               : 0.252 FPS
  165. Count of elements                        : 1484
  166. Stream size                              : 41.6 KiB (0%)
  167. Title                                    : French
  168. Language                                 : French
  169. Default                                  : No
  170. Forced                                   : No
  171. Text #10
  172. ID                                       : 12
  173. Format                                   : UTF-8
  174. Codec ID                                 : S_TEXT/UTF8
  175. Codec ID/Info                            : UTF-8 Plain Text
  176. Duration                                 : 1 h 34 min
  177. Bit rate                                 : 91 b/s
  178. Frame rate                               : 0.263 FPS
  179. Count of elements                        : 1486
  180. Stream size                              : 63.2 KiB (0%)
  181. Title                                    : Hebrew
  182. Language                                 : Hebrew
  183. Default                                  : No
  184. Forced                                   : No
  185. Text #11
  186. ID                                       : 13
  187. Format                                   : UTF-8
  188. Codec ID                                 : S_TEXT/UTF8
  189. Codec ID/Info                            : UTF-8 Plain Text
  190. Duration                                 : 1 h 34 min
  191. Bit rate                                 : 57 b/s
  192. Frame rate                               : 0.243 FPS
  193. Count of elements                        : 1376
  194. Stream size                              : 40.0 KiB (0%)
  195. Title                                    : Indonesian
  196. Language                                 : Indonesian
  197. Default                                  : No
  198. Forced                                   : No
  199. Text #12
  200. ID                                       : 14
  201. Format                                   : UTF-8
  202. Codec ID                                 : S_TEXT/UTF8
  203. Codec ID/Info                            : UTF-8 Plain Text
  204. Duration                                 : 1 h 34 min
  205. Bit rate                                 : 53 b/s
  206. Frame rate                               : 0.230 FPS
  207. Count of elements                        : 1298
  208. Stream size                              : 37.1 KiB (0%)
  209. Title                                    : Italian
  210. Language                                 : Italian
  211. Default                                  : No
  212. Forced                                   : No
  213. Text #13
  214. ID                                       : 15
  215. Format                                   : UTF-8
  216. Codec ID                                 : S_TEXT/UTF8
  217. Codec ID/Info                            : UTF-8 Plain Text
  218. Duration                                 : 1 h 34 min
  219. Bit rate                                 : 50 b/s
  220. Frame rate                               : 0.273 FPS
  221. Count of elements                        : 1542
  222. Stream size                              : 34.6 KiB (0%)
  223. Title                                    : Japanese
  224. Language                                 : Japanese
  225. Default                                  : No
  226. Forced                                   : No
  227. Text #14
  228. ID                                       : 16
  229. Format                                   : UTF-8
  230. Codec ID                                 : S_TEXT/UTF8
  231. Codec ID/Info                            : UTF-8 Plain Text
  232. Duration                                 : 1 h 34 min
  233. Bit rate                                 : 61 b/s
  234. Frame rate                               : 0.268 FPS
  235. Count of elements                        : 1514
  236. Stream size                              : 42.4 KiB (0%)
  237. Title                                    : Korean
  238. Language                                 : Korean
  239. Default                                  : No
  240. Forced                                   : No
  241. Text #15
  242. ID                                       : 17
  243. Format                                   : UTF-8
  244. Codec ID                                 : S_TEXT/UTF8
  245. Codec ID/Info                            : UTF-8 Plain Text
  246. Duration                                 : 1 h 34 min
  247. Bit rate                                 : 55 b/s
  248. Frame rate                               : 0.267 FPS
  249. Count of elements                        : 1507
  250. Stream size                              : 38.5 KiB (0%)
  251. Title                                    : Norwegian Bokm?l
  252. Language                                 : Norwegian Bokmal
  253. Default                                  : No
  254. Forced                                   : No
  255. Text #16
  256. ID                                       : 18
  257. Format                                   : UTF-8
  258. Codec ID                                 : S_TEXT/UTF8
  259. Codec ID/Info                            : UTF-8 Plain Text
  260. Duration                                 : 1 h 38 min
  261. Bit rate                                 : 47 b/s
  262. Frame rate                               : 0.205 FPS
  263. Count of elements                        : 1207
  264. Stream size                              : 34.4 KiB (0%)
  265. Title                                    : Dutch
  266. Language                                 : Dutch
  267. Default                                  : No
  268. Forced                                   : No
  269. Text #17
  270. ID                                       : 19
  271. Format                                   : UTF-8
  272. Codec ID                                 : S_TEXT/UTF8
  273. Codec ID/Info                            : UTF-8 Plain Text
  274. Duration                                 : 1 h 32 min
  275. Bit rate                                 : 49 b/s
  276. Frame rate                               : 0.228 FPS
  277. Count of elements                        : 1266
  278. Stream size                              : 33.8 KiB (0%)
  279. Title                                    : Polish
  280. Language                                 : Polish
  281. Default                                  : No
  282. Forced                                   : No
  283. Text #18
  284. ID                                       : 20
  285. Format                                   : UTF-8
  286. Codec ID                                 : S_TEXT/UTF8
  287. Codec ID/Info                            : UTF-8 Plain Text
  288. Duration                                 : 1 h 38 min
  289. Bit rate                                 : 52 b/s
  290. Frame rate                               : 0.252 FPS
  291. Count of elements                        : 1488
  292. Stream size                              : 37.6 KiB (0%)
  293. Title                                    : Portuguese
  294. Language                                 : Portuguese
  295. Default                                  : No
  296. Forced                                   : No
  297. Text #19
  298. ID                                       : 21
  299. Format                                   : UTF-8
  300. Codec ID                                 : S_TEXT/UTF8
  301. Codec ID/Info                            : UTF-8 Plain Text
  302. Duration                                 : 1 h 34 min
  303. Bit rate                                 : 61 b/s
  304. Frame rate                               : 0.266 FPS
  305. Count of elements                        : 1504
  306. Stream size                              : 42.4 KiB (0%)
  307. Title                                    : Portuguese
  308. Language                                 : Portuguese
  309. Default                                  : No
  310. Forced                                   : No
  311. Text #20
  312. ID                                       : 22
  313. Format                                   : UTF-8
  314. Codec ID                                 : S_TEXT/UTF8
  315. Codec ID/Info                            : UTF-8 Plain Text
  316. Duration                                 : 1 h 34 min
  317. Bit rate                                 : 57 b/s
  318. Frame rate                               : 0.262 FPS
  319. Count of elements                        : 1482
  320. Stream size                              : 39.3 KiB (0%)
  321. Title                                    : Romanian
  322. Language                                 : Romanian
  323. Default                                  : No
  324. Forced                                   : No
  325. Text #21
  326. ID                                       : 23
  327. Format                                   : UTF-8
  328. Codec ID                                 : S_TEXT/UTF8
  329. Codec ID/Info                            : UTF-8 Plain Text
  330. Duration                                 : 1 h 34 min
  331. Bit rate                                 : 56 b/s
  332. Frame rate                               : 0.268 FPS
  333. Count of elements                        : 1514
  334. Stream size                              : 38.8 KiB (0%)
  335. Title                                    : Swedish
  336. Language                                 : Swedish
  337. Default                                  : No
  338. Forced                                   : No
  339. Text #22
  340. ID                                       : 24
  341. Format                                   : UTF-8
  342. Codec ID                                 : S_TEXT/UTF8
  343. Codec ID/Info                            : UTF-8 Plain Text
  344. Duration                                 : 1 h 34 min
  345. Bit rate                                 : 117 b/s
  346. Frame rate                               : 0.269 FPS
  347. Count of elements                        : 1519
  348. Stream size                              : 80.8 KiB (0%)
  349. Title                                    : Thai
  350. Language                                 : Thai
  351. Default                                  : No
  352. Forced                                   : No
  353. Text #23
  354. ID                                       : 25
  355. Format                                   : UTF-8
  356. Codec ID                                 : S_TEXT/UTF8
  357. Codec ID/Info                            : UTF-8 Plain Text
  358. Duration                                 : 1 h 34 min
  359. Bit rate                                 : 58 b/s
  360. Frame rate                               : 0.268 FPS
  361. Count of elements                        : 1514
  362. Stream size                              : 40.3 KiB (0%)
  363. Title                                    : Turkish
  364. Language                                 : Turkish
  365. Default                                  : No
  366. Forced                                   : No
  367. Text #24
  368. ID                                       : 26
  369. Format                                   : UTF-8
  370. Codec ID                                 : S_TEXT/UTF8
  371. Codec ID/Info                            : UTF-8 Plain Text
  372. Duration                                 : 1 h 34 min
  373. Bit rate                                 : 52 b/s
  374. Frame rate                               : 0.268 FPS
  375. Count of elements                        : 1513
  376. Stream size                              : 36.4 KiB (0%)
  377. Title                                    : Simplified, Chinese
  378. Language                                 : Chinese
  379. Default                                  : No
  380. Forced                                   : No
  381. Text #25
  382. ID                                       : 27
  383. Format                                   : UTF-8
  384. Codec ID                                 : S_TEXT/UTF8
  385. Codec ID/Info                            : UTF-8 Plain Text
  386. Duration                                 : 1 h 34 min
  387. Bit rate                                 : 53 b/s
  388. Frame rate                               : 0.268 FPS
  389. Count of elements                        : 1512
  390. Stream size                              : 37.2 KiB (0%)
  391. Title                                    : Traditional, Chinese
  392. Language                                 : Chinese
  393. Default                                  : No
  394. Forced                                   : No
  395. Menu
  396. 00:00:00.000                             : en:Part 01
  397. 01:34:49.450                             : en:Credits
复制代码











回复

使用道具 举报

懒得打字嘛,点击右侧快捷回复 【右侧内容,后台自定义】
您需要登录后才可以回帖 登录 | 立即加入

本版积分规则

Archiver|小黑屋| 蓝光电影网 |网站地图

Copyright © 2021 Comsenz Inc. Powered by 蓝光电影网

蓝光电影网

本站内容由用户自主分享和转载自互联网,转载目的在于传递更多信息,并不代表本网赞同其观点和对其真实性负责。

如有侵权、违反国家法律政策行为,请联系我们,我们会第一时间及时清除和处理!

举报反馈邮箱:[email protected]

快速回复 返回顶部 返回列表