找回密码

蓝光电影网

查看: 70|回复: 2

[2160p-WEB] 黑疯婆子圣母归来[中文字幕].A.Madea.Homecoming.2022.2160p.NF.WEB-DL.DDP5.1.Atmos.DV.MKV.x265-HHWEB 14.66GB

[复制链接]
蓝光币
1084
发表于 2023-1-12 16:18:34 | 显示全部楼层 |阅读模式


◎标  题 黑疯婆子圣母归来
◎译  名 黑疯婆子再掀波涛 / 欢庆归来梅迪亚
◎片  名 Tyler Perry’s A Madea Homecoming
◎年  代 2022
◎产  地 美国
◎类  别 笑剧
◎语  言 英语
◎上映日期 2022-02-25(美国)
◎IMDb评分 5.6/10 (4106人评价)
◎IMDb链接 https://www.imdb.com/title/tt14813966/
◎豆瓣评分 5.6/10 (97人评价)
◎豆瓣链接 https://movie.douban.com/subject/35752771/
◎片  长 105分钟
◎导  演 泰勒·派瑞 Tyler Perry
◎编  剧 泰勒·派瑞 Tyler Perry
◎演  员 泰勒·派瑞 Tyler Perry
       布伦丹·奥卡罗尔 Brendan O'Carroll
       Tamela J. Mann Tamela J. Mann
        David Mann
       凯西·戴维斯 Cassi Davis
       加布里埃尔·丹尼斯 Gabrielle Dennis
        Rickey Atkins Jr.
       杰伊·古铁雷斯 Jay Gutierrez
◎简  介
    Madea's back hallelujer. And she's not putting up with any nonsense as family drama erupts at her great-grandson's college graduation celebration.
  1. Video
  2. ID                                       : 1
  3. Format                                   : HEVC
  4. Format/Info                              : High Efficiency Video Coding
  5. Format profile                           : Main [email protected]@Main
  6. HDR format                               : Dolby Vision, Version 1.0, dvhe.05.06, BL+RPU
  7. Codec ID                                 : V_MPEGH/ISO/HEVC
  8. Duration                                 : 1 h 47 min
  9. Bit rate                                 : 18.8 Mb/s
  10. Width                                    : 3 840 pixels
  11. Height                                   : 2 160 pixels
  12. Display aspect ratio                     : 16:9
  13. Frame rate mode                          : Constant
  14. Frame rate                               : 23.976 (24000/1001) FPS
  15. Color space                              : YUV
  16. Chroma subsampling                       : 4:2:0
  17. Bit depth                                : 10 bits
  18. Bits/(Pixel*Frame)                       : 0.095
  19. Stream size                              : 14.1 GiB (96%)
  20. Default                                  : Yes
  21. Forced                                   : No
  22. Color range                              : Full
  23. Audio
  24. ID                                       : 2
  25. Format                                   : E-AC-3 JOC
  26. Format/Info                              : Enhanced AC-3 with Joint Object Coding
  27. Commercial name                          : Dolby Digital Plus with Dolby Atmos
  28. Codec ID                                 : A_EAC3
  29. Duration                                 : 1 h 47 min
  30. Bit rate mode                            : Constant
  31. Bit rate                                 : 768 kb/s
  32. Channel(s)                               : 6 channels
  33. Channel layout                           : L R C LFE Ls Rs
  34. Sampling rate                            : 48.0 kHz
  35. Frame rate                               : 31.250 FPS (1536 SPF)
  36. Compression mode                         : Lossy
  37. Stream size                              : 589 MiB (4%)
  38. Title                                    : English
  39. Language                                 : English
  40. Service kind                             : Complete Main
  41. Default                                  : No
  42. Forced                                   : No
  43. Complexity index                         : 16
  44. Number of dynamic objects                : 15
  45. Bed channel count                        : 1 channel
  46. Bed channel configuration                : LFE
  47. Text #1
  48. ID                                       : 3
  49. Format                                   : UTF-8
  50. Codec ID                                 : S_TEXT/UTF8
  51. Codec ID/Info                            : UTF-8 Plain Text
  52. Duration                                 : 1 h 44 min
  53. Bit rate                                 : 181 b/s
  54. Frame rate                               : 0.358 FPS
  55. Count of elements                        : 2252
  56. Stream size                              : 140 KiB (0%)
  57. Title                                    : Arabic
  58. Language                                 : Arabic
  59. Default                                  : No
  60. Forced                                   : No
  61. Text #2
  62. ID                                       : 4
  63. Format                                   : UTF-8
  64. Codec ID                                 : S_TEXT/UTF8
  65. Codec ID/Info                            : UTF-8 Plain Text
  66. Duration                                 : 1 h 44 min
  67. Bit rate                                 : 107 b/s
  68. Frame rate                               : 0.362 FPS
  69. Count of elements                        : 2278
  70. Stream size                              : 82.9 KiB (0%)
  71. Title                                    : Chinese Simplified
  72. Language                                 : Chinese
  73. Default                                  : No
  74. Forced                                   : No
  75. Text #3
  76. ID                                       : 5
  77. Format                                   : UTF-8
  78. Codec ID                                 : S_TEXT/UTF8
  79. Codec ID/Info                            : UTF-8 Plain Text
  80. Duration                                 : 1 h 44 min
  81. Bit rate                                 : 106 b/s
  82. Frame rate                               : 0.381 FPS
  83. Count of elements                        : 2397
  84. Stream size                              : 81.7 KiB (0%)
  85. Title                                    : Chinese Traditional
  86. Language                                 : Chinese
  87. Default                                  : No
  88. Forced                                   : No
  89. Text #4
  90. ID                                       : 6
  91. Format                                   : UTF-8
  92. Codec ID                                 : S_TEXT/UTF8
  93. Codec ID/Info                            : UTF-8 Plain Text
  94. Duration                                 : 1 h 44 min
  95. Bit rate                                 : 94 b/s
  96. Frame rate                               : 0.342 FPS
  97. Count of elements                        : 2153
  98. Stream size                              : 72.3 KiB (0%)
  99. Title                                    : Czech
  100. Language                                 : Czech
  101. Default                                  : No
  102. Forced                                   : No
  103. Text #5
  104. ID                                       : 7
  105. Format                                   : UTF-8
  106. Codec ID                                 : S_TEXT/UTF8
  107. Codec ID/Info                            : UTF-8 Plain Text
  108. Duration                                 : 1 h 44 min
  109. Bit rate                                 : 91 b/s
  110. Frame rate                               : 0.325 FPS
  111. Count of elements                        : 2047
  112. Stream size                              : 70.1 KiB (0%)
  113. Title                                    : Danish
  114. Language                                 : Danish
  115. Default                                  : No
  116. Forced                                   : No
  117. Text #6
  118. ID                                       : 8
  119. Format                                   : UTF-8
  120. Codec ID                                 : S_TEXT/UTF8
  121. Codec ID/Info                            : UTF-8 Plain Text
  122. Duration                                 : 1 h 44 min
  123. Bit rate                                 : 91 b/s
  124. Frame rate                               : 0.292 FPS
  125. Count of elements                        : 1841
  126. Stream size                              : 70.0 KiB (0%)
  127. Title                                    : Dutch
  128. Language                                 : Dutch
  129. Default                                  : No
  130. Forced                                   : No
  131. Text #7
  132. ID                                       : 9
  133. Format                                   : UTF-8
  134. Codec ID                                 : S_TEXT/UTF8
  135. Codec ID/Info                            : UTF-8 Plain Text
  136. Duration                                 : 1 h 44 min
  137. Bit rate                                 : 96 b/s
  138. Frame rate                               : 0.390 FPS
  139. Count of elements                        : 2455
  140. Stream size                              : 74.4 KiB (0%)
  141. Title                                    : English Philippines
  142. Language                                 : English (PH)
  143. Default                                  : No
  144. Forced                                   : No
  145. Text #8
  146. ID                                       : 10
  147. Format                                   : UTF-8
  148. Codec ID                                 : S_TEXT/UTF8
  149. Codec ID/Info                            : UTF-8 Plain Text
  150. Duration                                 : 1 h 44 min
  151. Bit rate                                 : 127 b/s
  152. Frame rate                               : 0.397 FPS
  153. Count of elements                        : 2497
  154. Stream size                              : 97.8 KiB (0%)
  155. Title                                    : English [SDH]
  156. Language                                 : English
  157. Default                                  : No
  158. Forced                                   : No
  159. Text #9
  160. ID                                       : 11
  161. Format                                   : UTF-8
  162. Codec ID                                 : S_TEXT/UTF8
  163. Codec ID/Info                            : UTF-8 Plain Text
  164. Duration                                 : 1 h 44 min
  165. Bit rate                                 : 115 b/s
  166. Frame rate                               : 0.370 FPS
  167. Count of elements                        : 2331
  168. Stream size                              : 88.7 KiB (0%)
  169. Title                                    : English
  170. Language                                 : English
  171. Default                                  : No
  172. Forced                                   : No
  173. Text #10
  174. ID                                       : 12
  175. Format                                   : UTF-8
  176. Codec ID                                 : S_TEXT/UTF8
  177. Codec ID/Info                            : UTF-8 Plain Text
  178. Duration                                 : 1 h 44 min
  179. Bit rate                                 : 79 b/s
  180. Frame rate                               : 0.223 FPS
  181. Count of elements                        : 1404
  182. Stream size                              : 60.7 KiB (0%)
  183. Title                                    : Finnish
  184. Language                                 : Finnish
  185. Default                                  : No
  186. Forced                                   : No
  187. Text #11
  188. ID                                       : 13
  189. Format                                   : UTF-8
  190. Codec ID                                 : S_TEXT/UTF8
  191. Codec ID/Info                            : UTF-8 Plain Text
  192. Duration                                 : 1 h 44 min
  193. Bit rate                                 : 96 b/s
  194. Frame rate                               : 0.353 FPS
  195. Count of elements                        : 2220
  196. Stream size                              : 74.5 KiB (0%)
  197. Title                                    : French
  198. Language                                 : French
  199. Default                                  : No
  200. Forced                                   : No
  201. Text #12
  202. ID                                       : 14
  203. Format                                   : UTF-8
  204. Codec ID                                 : S_TEXT/UTF8
  205. Codec ID/Info                            : UTF-8 Plain Text
  206. Duration                                 : 1 h 44 min
  207. Bit rate                                 : 96 b/s
  208. Frame rate                               : 0.342 FPS
  209. Count of elements                        : 2152
  210. Stream size                              : 74.1 KiB (0%)
  211. Title                                    : German
  212. Language                                 : German
  213. Default                                  : No
  214. Forced                                   : No
  215. Text #13
  216. ID                                       : 15
  217. Format                                   : UTF-8
  218. Codec ID                                 : S_TEXT/UTF8
  219. Codec ID/Info                            : UTF-8 Plain Text
  220. Duration                                 : 1 h 44 min
  221. Bit rate                                 : 167 b/s
  222. Frame rate                               : 0.365 FPS
  223. Count of elements                        : 2299
  224. Stream size                              : 129 KiB (0%)
  225. Title                                    : Greek
  226. Language                                 : Greek
  227. Default                                  : No
  228. Forced                                   : No
  229. Text #14
  230. ID                                       : 16
  231. Format                                   : UTF-8
  232. Codec ID                                 : S_TEXT/UTF8
  233. Codec ID/Info                            : UTF-8 Plain Text
  234. Duration                                 : 1 h 44 min
  235. Bit rate                                 : 160 b/s
  236. Frame rate                               : 0.360 FPS
  237. Count of elements                        : 2265
  238. Stream size                              : 124 KiB (0%)
  239. Title                                    : Hebrew
  240. Language                                 : Hebrew
  241. Default                                  : No
  242. Forced                                   : No
  243. Text #15
  244. ID                                       : 17
  245. Format                                   : UTF-8
  246. Codec ID                                 : S_TEXT/UTF8
  247. Codec ID/Info                            : UTF-8 Plain Text
  248. Duration                                 : 1 h 44 min
  249. Bit rate                                 : 88 b/s
  250. Frame rate                               : 0.362 FPS
  251. Count of elements                        : 2278
  252. Stream size                              : 67.8 KiB (0%)
  253. Title                                    : Croatian
  254. Language                                 : Croatian
  255. Default                                  : No
  256. Forced                                   : No
  257. Text #16
  258. ID                                       : 18
  259. Format                                   : UTF-8
  260. Codec ID                                 : S_TEXT/UTF8
  261. Codec ID/Info                            : UTF-8 Plain Text
  262. Duration                                 : 1 h 44 min
  263. Bit rate                                 : 96 b/s
  264. Frame rate                               : 0.357 FPS
  265. Count of elements                        : 2247
  266. Stream size                              : 73.8 KiB (0%)
  267. Title                                    : Hungarian
  268. Language                                 : Hungarian
  269. Default                                  : No
  270. Forced                                   : No
  271. Text #17
  272. ID                                       : 19
  273. Format                                   : UTF-8
  274. Codec ID                                 : S_TEXT/UTF8
  275. Codec ID/Info                            : UTF-8 Plain Text
  276. Duration                                 : 1 h 44 min
  277. Bit rate                                 : 101 b/s
  278. Frame rate                               : 0.360 FPS
  279. Count of elements                        : 2266
  280. Stream size                              : 78.4 KiB (0%)
  281. Title                                    : Indonesian
  282. Language                                 : Indonesian
  283. Default                                  : No
  284. Forced                                   : No
  285. Text #18
  286. ID                                       : 20
  287. Format                                   : UTF-8
  288. Codec ID                                 : S_TEXT/UTF8
  289. Codec ID/Info                            : UTF-8 Plain Text
  290. Duration                                 : 1 h 44 min
  291. Bit rate                                 : 91 b/s
  292. Frame rate                               : 0.326 FPS
  293. Count of elements                        : 2050
  294. Stream size                              : 70.1 KiB (0%)
  295. Title                                    : Italian
  296. Language                                 : Italian
  297. Default                                  : No
  298. Forced                                   : No
  299. Text #19
  300. ID                                       : 21
  301. Format                                   : UTF-8
  302. Codec ID                                 : S_TEXT/UTF8
  303. Codec ID/Info                            : UTF-8 Plain Text
  304. Duration                                 : 1 h 44 min
  305. Bit rate                                 : 88 b/s
  306. Frame rate                               : 0.378 FPS
  307. Count of elements                        : 2380
  308. Stream size                              : 68.0 KiB (0%)
  309. Title                                    : Japanese
  310. Language                                 : Japanese
  311. Default                                  : No
  312. Forced                                   : No
  313. Text #20
  314. ID                                       : 22
  315. Format                                   : UTF-8
  316. Codec ID                                 : S_TEXT/UTF8
  317. Codec ID/Info                            : UTF-8 Plain Text
  318. Duration                                 : 1 h 44 min
  319. Bit rate                                 : 128 b/s
  320. Frame rate                               : 0.363 FPS
  321. Count of elements                        : 2286
  322. Stream size                              : 98.8 KiB (0%)
  323. Title                                    : Korean
  324. Language                                 : Korean
  325. Default                                  : No
  326. Forced                                   : No
  327. Text #21
  328. ID                                       : 23
  329. Format                                   : UTF-8
  330. Codec ID                                 : S_TEXT/UTF8
  331. Codec ID/Info                            : UTF-8 Plain Text
  332. Duration                                 : 1 h 44 min
  333. Bit rate                                 : 93 b/s
  334. Frame rate                               : 0.356 FPS
  335. Count of elements                        : 2238
  336. Stream size                              : 71.6 KiB (0%)
  337. Title                                    : Malay
  338. Language                                 : Malay
  339. Default                                  : No
  340. Forced                                   : No
  341. Text #22
  342. ID                                       : 24
  343. Format                                   : UTF-8
  344. Codec ID                                 : S_TEXT/UTF8
  345. Codec ID/Info                            : UTF-8 Plain Text
  346. Duration                                 : 1 h 44 min
  347. Bit rate                                 : 86 b/s
  348. Frame rate                               : 0.308 FPS
  349. Count of elements                        : 1941
  350. Stream size                              : 66.8 KiB (0%)
  351. Title                                    : Norwegian Bokmal
  352. Language                                 : Norwegian Bokmal
  353. Default                                  : No
  354. Forced                                   : No
  355. Text #23
  356. ID                                       : 25
  357. Format                                   : UTF-8
  358. Codec ID                                 : S_TEXT/UTF8
  359. Codec ID/Info                            : UTF-8 Plain Text
  360. Duration                                 : 1 h 44 min
  361. Bit rate                                 : 91 b/s
  362. Frame rate                               : 0.358 FPS
  363. Count of elements                        : 2254
  364. Stream size                              : 70.5 KiB (0%)
  365. Title                                    : Polish
  366. Language                                 : Polish
  367. Default                                  : No
  368. Forced                                   : No
  369. Text #24
  370. ID                                       : 26
  371. Format                                   : UTF-8
  372. Codec ID                                 : S_TEXT/UTF8
  373. Codec ID/Info                            : UTF-8 Plain Text
  374. Duration                                 : 1 h 44 min
  375. Bit rate                                 : 95 b/s
  376. Frame rate                               : 0.354 FPS
  377. Count of elements                        : 2227
  378. Stream size                              : 73.7 KiB (0%)
  379. Title                                    : Brazilian Portuguese
  380. Language                                 : Portuguese
  381. Default                                  : No
  382. Forced                                   : No
  383. Text #25
  384. ID                                       : 27
  385. Format                                   : UTF-8
  386. Codec ID                                 : S_TEXT/UTF8
  387. Codec ID/Info                            : UTF-8 Plain Text
  388. Duration                                 : 1 h 44 min
  389. Bit rate                                 : 96 b/s
  390. Frame rate                               : 0.333 FPS
  391. Count of elements                        : 2096
  392. Stream size                              : 74.2 KiB (0%)
  393. Title                                    : Portuguese
  394. Language                                 : Portuguese
  395. Default                                  : No
  396. Forced                                   : No
  397. Text #26
  398. ID                                       : 28
  399. Format                                   : UTF-8
  400. Codec ID                                 : S_TEXT/UTF8
  401. Codec ID/Info                            : UTF-8 Plain Text
  402. Duration                                 : 1 h 44 min
  403. Bit rate                                 : 102 b/s
  404. Frame rate                               : 0.356 FPS
  405. Count of elements                        : 2239
  406. Stream size                              : 79.1 KiB (0%)
  407. Title                                    : Romanian
  408. Language                                 : Romanian
  409. Default                                  : No
  410. Forced                                   : No
  411. Text #27
  412. ID                                       : 29
  413. Format                                   : UTF-8
  414. Codec ID                                 : S_TEXT/UTF8
  415. Codec ID/Info                            : UTF-8 Plain Text
  416. Duration                                 : 1 h 44 min
  417. Bit rate                                 : 155 b/s
  418. Frame rate                               : 0.359 FPS
  419. Count of elements                        : 2259
  420. Stream size                              : 120 KiB (0%)
  421. Title                                    : Russian
  422. Language                                 : Russian
  423. Default                                  : No
  424. Forced                                   : No
  425. Text #28
  426. ID                                       : 30
  427. Format                                   : UTF-8
  428. Codec ID                                 : S_TEXT/UTF8
  429. Codec ID/Info                            : UTF-8 Plain Text
  430. Duration                                 : 1 h 44 min
  431. Bit rate                                 : 88 b/s
  432. Frame rate                               : 0.379 FPS
  433. Count of elements                        : 2385
  434. Stream size                              : 68.0 KiB (0%)
  435. Title                                    : European Spanish
  436. Language                                 : Spanish
  437. Default                                  : No
  438. Forced                                   : No
  439. Text #29
  440. ID                                       : 31
  441. Format                                   : UTF-8
  442. Codec ID                                 : S_TEXT/UTF8
  443. Codec ID/Info                            : UTF-8 Plain Text
  444. Duration                                 : 1 h 44 min
  445. Bit rate                                 : 94 b/s
  446. Frame rate                               : 0.352 FPS
  447. Count of elements                        : 2214
  448. Stream size                              : 72.7 KiB (0%)
  449. Title                                    : Spanish
  450. Language                                 : Spanish
  451. Default                                  : No
  452. Forced                                   : No
  453. Text #30
  454. ID                                       : 32
  455. Format                                   : UTF-8
  456. Codec ID                                 : S_TEXT/UTF8
  457. Codec ID/Info                            : UTF-8 Plain Text
  458. Duration                                 : 1 h 44 min
  459. Bit rate                                 : 93 b/s
  460. Frame rate                               : 0.271 FPS
  461. Count of elements                        : 1708
  462. Stream size                              : 71.5 KiB (0%)
  463. Title                                    : Swedish
  464. Language                                 : Swedish
  465. Default                                  : No
  466. Forced                                   : No
  467. Text #31
  468. ID                                       : 33
  469. Format                                   : UTF-8
  470. Codec ID                                 : S_TEXT/UTF8
  471. Codec ID/Info                            : UTF-8 Plain Text
  472. Duration                                 : 1 h 44 min
  473. Bit rate                                 : 255 b/s
  474. Frame rate                               : 0.368 FPS
  475. Count of elements                        : 2319
  476. Stream size                              : 197 KiB (0%)
  477. Title                                    : Thai
  478. Language                                 : Thai
  479. Default                                  : No
  480. Forced                                   : No
  481. Text #32
  482. ID                                       : 34
  483. Format                                   : UTF-8
  484. Codec ID                                 : S_TEXT/UTF8
  485. Codec ID/Info                            : UTF-8 Plain Text
  486. Duration                                 : 1 h 44 min
  487. Bit rate                                 : 95 b/s
  488. Frame rate                               : 0.348 FPS
  489. Count of elements                        : 2192
  490. Stream size                              : 73.6 KiB (0%)
  491. Title                                    : Turkish
  492. Language                                 : Turkish
  493. Default                                  : No
  494. Forced                                   : No
  495. Text #33
  496. ID                                       : 35
  497. Format                                   : UTF-8
  498. Codec ID                                 : S_TEXT/UTF8
  499. Codec ID/Info                            : UTF-8 Plain Text
  500. Duration                                 : 1 h 44 min
  501. Bit rate                                 : 154 b/s
  502. Frame rate                               : 0.369 FPS
  503. Count of elements                        : 2316
  504. Stream size                              : 119 KiB (0%)
  505. Title                                    : Ukrainian
  506. Language                                 : Ukrainian
  507. Default                                  : No
  508. Forced                                   : No
  509. Text #34
  510. ID                                       : 36
  511. Format                                   : UTF-8
  512. Codec ID                                 : S_TEXT/UTF8
  513. Codec ID/Info                            : UTF-8 Plain Text
  514. Duration                                 : 1 h 44 min
  515. Bit rate                                 : 131 b/s
  516. Frame rate                               : 0.359 FPS
  517. Count of elements                        : 2263
  518. Stream size                              : 101 KiB (0%)
  519. Title                                    : Vietnamese
  520. Language                                 : Vietnamese
  521. Default                                  : No
  522. Forced                                   : No
复制代码











回复

使用道具 举报

蓝光币
814
发表于 2023-1-12 19:37:55 | 显示全部楼层

这个帖子不回对不起自己!我想我是一天也不能离开蓝光电影网。
回复 支持 反对

使用道具 举报

蓝光币
285
发表于 2023-1-13 09:12:49 | 显示全部楼层
谢谢分享好资源。
回复 支持 反对

使用道具 举报

懒得打字嘛,点击右侧快捷回复 【右侧内容,后台自定义】
您需要登录后才可以回帖 登录 | 立即加入

本版积分规则

Archiver|小黑屋| 蓝光电影网 |网站地图

Copyright © 2021 Comsenz Inc. Powered by 蓝光电影网

蓝光电影网

本站内容由用户自主分享和转载自互联网,转载目的在于传递更多信息,并不代表本网赞同其观点和对其真实性负责。

如有侵权、违反国家法律政策行为,请联系我们,我们会第一时间及时清除和处理!

举报反馈邮箱:[email protected]

快速回复 返回顶部 返回列表