找回密码

蓝光电影网

查看: 105|回复: 2

[2160p-WEB] 乐队男孩:从何而来[中文字幕].The.Boys.in.the.Band.2020.2160p.NF.WEB-DL.x265.10bit.HDR.DDP5.1.Atmos-CHDWEB 16.67GB

[复制链接]
蓝光币
1084
发表于 2023-1-12 16:18:35 | 显示全部楼层 |阅读模式


◎标  题 乐队男孩:从何而来
◎译  名 The Boys in the Band: Etwas Persönliches
◎片  名 The Boys in the Band: Something Personal
◎年  代 2020
◎产  地 美国
◎类  别 记载片
◎语  言 英语
◎上映日期 2020-09-30(美国)
◎IMDb评分 7.2/10 (379人评价)
◎IMDb链接 https://www.imdb.com/title/tt13206842/
◎豆瓣链接 https://movie.douban.com/subject/35222125/
◎片  长 28分钟
◎演  员 马特·波莫 Matt Bomer
       查尔斯·卡维尔 Charles Carver
       马尔特·克劳利 Mart Crowley
       罗宾·德·齐泽斯 Robin de Jesus
       布莱恩·胡奇森 Brian Hutchison
       奈德·马特尔 Ned Martel
       吉姆·帕森斯 Jim Parsons
       扎克瑞·昆图 Zachary Quinto
       安德鲁·兰内斯 Andrew Rannells
       迈克尔·本杰明·华盛顿 Michael Benjamin Washington
       塔克·霍金斯 Tuc Watkins
◎简  介
    Decades after his play first put gay life center stage, Mart Crowley joins the cast of the 2020 film to reflect on the story's enduring legacy.
  1. Video
  2. ID                                       : 1
  3. Format                                   : HEVC
  4. Format/Info                              : High Efficiency Video Coding
  5. Format profile                           : Main [email protected]@Main
  6. HDR format                               : SMPTE ST 2086, HDR10 compatible
  7. Codec ID                                 : V_MPEGH/ISO/HEVC
  8. Duration                                 : 2 h 1 min
  9. Bit rate                                 : 18.8 Mb/s
  10. Width                                    : 3 840 pixels
  11. Height                                   : 2 160 pixels
  12. Display aspect ratio                     : 16:9
  13. Frame rate mode                          : Constant
  14. Frame rate                               : 24.000 FPS
  15. Color space                              : YUV
  16. Chroma subsampling                       : 4:2:0 (Type 2)
  17. Bit depth                                : 10 bits
  18. Bits/(Pixel*Frame)                       : 0.095
  19. Stream size                              : 16.0 GiB (96%)
  20. Language                                 : English
  21. Default                                  : Yes
  22. Forced                                   : No
  23. Color range                              : Limited
  24. Color primaries                          : BT.2020
  25. Transfer characteristics                 : PQ
  26. Matrix coefficients                      : BT.2020 non-constant
  27. Mastering display color primaries        : Display P3
  28. Mastering display luminance              : min: 0.0001 cd/m2, max: 1000 cd/m2
  29. Maximum Content Light Level              : 738 cd/m2
  30. Maximum Frame-Average Light Level        : 123 cd/m2
  31. Audio
  32. ID                                       : 2
  33. Format                                   : E-AC-3 JOC
  34. Format/Info                              : Enhanced AC-3 with Joint Object Coding
  35. Commercial name                          : Dolby Digital Plus with Dolby Atmos
  36. Codec ID                                 : A_EAC3
  37. Duration                                 : 2 h 2 min
  38. Bit rate mode                            : Constant
  39. Bit rate                                 : 768 kb/s
  40. Channel(s)                               : 6 channels
  41. Channel layout                           : L R C LFE Ls Rs
  42. Sampling rate                            : 48.0 kHz
  43. Frame rate                               : 31.250 FPS (1536 SPF)
  44. Compression mode                         : Lossy
  45. Stream size                              : 672 MiB (4%)
  46. Language                                 : English
  47. Service kind                             : Complete Main
  48. Default                                  : Yes
  49. Forced                                   : No
  50. Complexity index                         : 16
  51. Number of dynamic objects                : 15
  52. Bed channel count                        : 1 channel
  53. Bed channel configuration                : LFE
  54. Text #1
  55. ID                                       : 3
  56. Format                                   : UTF-8
  57. Codec ID                                 : S_TEXT/UTF8
  58. Codec ID/Info                            : UTF-8 Plain Text
  59. Duration                                 : 1 h 54 min
  60. Bit rate                                 : 84 b/s
  61. Frame rate                               : 0.278 FPS
  62. Count of elements                        : 1908
  63. Stream size                              : 70.8 KiB (0%)
  64. Title                                    : SDH
  65. Language                                 : English
  66. Default                                  : No
  67. Forced                                   : No
  68. Text #2
  69. ID                                       : 4
  70. Format                                   : UTF-8
  71. Codec ID                                 : S_TEXT/UTF8
  72. Codec ID/Info                            : UTF-8 Plain Text
  73. Duration                                 : 2 h 1 min
  74. Bit rate                                 : 73 b/s
  75. Frame rate                               : 0.238 FPS
  76. Count of elements                        : 1736
  77. Stream size                              : 65.5 KiB (0%)
  78. Title                                    : Simplified
  79. Language                                 : Chinese (Simplied)
  80. Default                                  : No
  81. Forced                                   : No
  82. Text #3
  83. ID                                       : 5
  84. Format                                   : UTF-8
  85. Codec ID                                 : S_TEXT/UTF8
  86. Codec ID/Info                            : UTF-8 Plain Text
  87. Duration                                 : 2 h 1 min
  88. Bit rate                                 : 63 b/s
  89. Frame rate                               : 0.238 FPS
  90. Count of elements                        : 1734
  91. Stream size                              : 56.2 KiB (0%)
  92. Title                                    : Traditional
  93. Language                                 : Chinese (Traditional)
  94. Default                                  : No
  95. Forced                                   : No
  96. Text #4
  97. ID                                       : 6
  98. Format                                   : UTF-8
  99. Codec ID                                 : S_TEXT/UTF8
  100. Codec ID/Info                            : UTF-8 Plain Text
  101. Duration                                 : 2 h 1 min
  102. Bit rate                                 : 117 b/s
  103. Frame rate                               : 0.239 FPS
  104. Count of elements                        : 1740
  105. Stream size                              : 105 KiB (0%)
  106. Language                                 : Arabic
  107. Default                                  : No
  108. Forced                                   : No
  109. Text #5
  110. ID                                       : 7
  111. Format                                   : UTF-8
  112. Codec ID                                 : S_TEXT/UTF8
  113. Codec ID/Info                            : UTF-8 Plain Text
  114. Duration                                 : 2 h 1 min
  115. Bit rate                                 : 62 b/s
  116. Frame rate                               : 0.237 FPS
  117. Count of elements                        : 1729
  118. Stream size                              : 55.4 KiB (0%)
  119. Language                                 : Czech
  120. Default                                  : No
  121. Forced                                   : No
  122. Text #6
  123. ID                                       : 8
  124. Format                                   : UTF-8
  125. Codec ID                                 : S_TEXT/UTF8
  126. Codec ID/Info                            : UTF-8 Plain Text
  127. Duration                                 : 2 h 1 min
  128. Bit rate                                 : 59 b/s
  129. Frame rate                               : 0.220 FPS
  130. Count of elements                        : 1605
  131. Stream size                              : 52.5 KiB (0%)
  132. Language                                 : Danish
  133. Default                                  : No
  134. Forced                                   : No
  135. Text #7
  136. ID                                       : 9
  137. Format                                   : UTF-8
  138. Codec ID                                 : S_TEXT/UTF8
  139. Codec ID/Info                            : UTF-8 Plain Text
  140. Duration                                 : 2 h 1 min
  141. Bit rate                                 : 64 b/s
  142. Frame rate                               : 0.227 FPS
  143. Count of elements                        : 1656
  144. Stream size                              : 57.2 KiB (0%)
  145. Language                                 : German
  146. Default                                  : No
  147. Forced                                   : No
  148. Text #8
  149. ID                                       : 10
  150. Format                                   : UTF-8
  151. Codec ID                                 : S_TEXT/UTF8
  152. Codec ID/Info                            : UTF-8 Plain Text
  153. Duration                                 : 2 h 1 min
  154. Bit rate                                 : 108 b/s
  155. Frame rate                               : 0.240 FPS
  156. Count of elements                        : 1750
  157. Stream size                              : 96.2 KiB (0%)
  158. Language                                 : Greek
  159. Default                                  : No
  160. Forced                                   : No
  161. Text #9
  162. ID                                       : 11
  163. Format                                   : UTF-8
  164. Codec ID                                 : S_TEXT/UTF8
  165. Codec ID/Info                            : UTF-8 Plain Text
  166. Duration                                 : 2 h 1 min
  167. Bit rate                                 : 64 b/s
  168. Frame rate                               : 0.236 FPS
  169. Count of elements                        : 1719
  170. Stream size                              : 57.6 KiB (0%)
  171. Title                                    : Latin America
  172. Language                                 : Spanish (Latin America)
  173. Default                                  : No
  174. Forced                                   : No
  175. Text #10
  176. ID                                       : 12
  177. Format                                   : UTF-8
  178. Codec ID                                 : S_TEXT/UTF8
  179. Codec ID/Info                            : UTF-8 Plain Text
  180. Duration                                 : 2 h 1 min
  181. Bit rate                                 : 61 b/s
  182. Frame rate                               : 0.237 FPS
  183. Count of elements                        : 1729
  184. Stream size                              : 54.8 KiB (0%)
  185. Language                                 : Spanish (ES)
  186. Default                                  : No
  187. Forced                                   : No
  188. Text #11
  189. ID                                       : 13
  190. Format                                   : UTF-8
  191. Codec ID                                 : S_TEXT/UTF8
  192. Codec ID/Info                            : UTF-8 Plain Text
  193. Duration                                 : 2 h 1 min
  194. Bit rate                                 : 58 b/s
  195. Frame rate                               : 0.231 FPS
  196. Count of elements                        : 1679
  197. Stream size                              : 52.0 KiB (0%)
  198. Language                                 : Finnish
  199. Default                                  : No
  200. Forced                                   : No
  201. Text #12
  202. ID                                       : 14
  203. Format                                   : UTF-8
  204. Codec ID                                 : S_TEXT/UTF8
  205. Codec ID/Info                            : UTF-8 Plain Text
  206. Duration                                 : 2 h 1 min
  207. Bit rate                                 : 65 b/s
  208. Frame rate                               : 0.236 FPS
  209. Count of elements                        : 1721
  210. Stream size                              : 57.8 KiB (0%)
  211. Language                                 : French
  212. Default                                  : No
  213. Forced                                   : No
  214. Text #13
  215. ID                                       : 15
  216. Format                                   : UTF-8
  217. Codec ID                                 : S_TEXT/UTF8
  218. Codec ID/Info                            : UTF-8 Plain Text
  219. Duration                                 : 2 h 1 min
  220. Bit rate                                 : 105 b/s
  221. Frame rate                               : 0.238 FPS
  222. Count of elements                        : 1736
  223. Stream size                              : 93.7 KiB (0%)
  224. Language                                 : Hebrew
  225. Default                                  : No
  226. Forced                                   : No
  227. Text #14
  228. ID                                       : 16
  229. Format                                   : UTF-8
  230. Codec ID                                 : S_TEXT/UTF8
  231. Codec ID/Info                            : UTF-8 Plain Text
  232. Duration                                 : 2 h 1 min
  233. Bit rate                                 : 59 b/s
  234. Frame rate                               : 0.233 FPS
  235. Count of elements                        : 1700
  236. Stream size                              : 53.0 KiB (0%)
  237. Language                                 : Croatian
  238. Default                                  : No
  239. Forced                                   : No
  240. Text #15
  241. ID                                       : 17
  242. Format                                   : UTF-8
  243. Codec ID                                 : S_TEXT/UTF8
  244. Codec ID/Info                            : UTF-8 Plain Text
  245. Duration                                 : 2 h 1 min
  246. Bit rate                                 : 63 b/s
  247. Frame rate                               : 0.224 FPS
  248. Count of elements                        : 1631
  249. Stream size                              : 56.2 KiB (0%)
  250. Language                                 : Hungarian
  251. Default                                  : No
  252. Forced                                   : No
  253. Text #16
  254. ID                                       : 18
  255. Format                                   : UTF-8
  256. Codec ID                                 : S_TEXT/UTF8
  257. Codec ID/Info                            : UTF-8 Plain Text
  258. Duration                                 : 2 h 1 min
  259. Bit rate                                 : 59 b/s
  260. Frame rate                               : 0.238 FPS
  261. Count of elements                        : 1736
  262. Stream size                              : 52.9 KiB (0%)
  263. Language                                 : Indonesian
  264. Default                                  : No
  265. Forced                                   : No
  266. Text #17
  267. ID                                       : 19
  268. Format                                   : UTF-8
  269. Codec ID                                 : S_TEXT/UTF8
  270. Codec ID/Info                            : UTF-8 Plain Text
  271. Duration                                 : 2 h 1 min
  272. Bit rate                                 : 63 b/s
  273. Frame rate                               : 0.237 FPS
  274. Count of elements                        : 1726
  275. Stream size                              : 56.3 KiB (0%)
  276. Language                                 : Italian
  277. Default                                  : No
  278. Forced                                   : No
  279. Text #18
  280. ID                                       : 20
  281. Format                                   : UTF-8
  282. Codec ID                                 : S_TEXT/UTF8
  283. Codec ID/Info                            : UTF-8 Plain Text
  284. Duration                                 : 2 h 1 min
  285. Bit rate                                 : 61 b/s
  286. Frame rate                               : 0.241 FPS
  287. Count of elements                        : 1752
  288. Stream size                              : 54.4 KiB (0%)
  289. Language                                 : Japanese
  290. Default                                  : No
  291. Forced                                   : No
  292. Text #19
  293. ID                                       : 21
  294. Format                                   : UTF-8
  295. Codec ID                                 : S_TEXT/UTF8
  296. Codec ID/Info                            : UTF-8 Plain Text
  297. Duration                                 : 2 h 1 min
  298. Bit rate                                 : 78 b/s
  299. Frame rate                               : 0.239 FPS
  300. Count of elements                        : 1742
  301. Stream size                              : 69.5 KiB (0%)
  302. Language                                 : Korean
  303. Default                                  : No
  304. Forced                                   : No
  305. Text #20
  306. ID                                       : 22
  307. Format                                   : UTF-8
  308. Codec ID                                 : S_TEXT/UTF8
  309. Codec ID/Info                            : UTF-8 Plain Text
  310. Duration                                 : 2 h 1 min
  311. Bit rate                                 : 58 b/s
  312. Frame rate                               : 0.236 FPS
  313. Count of elements                        : 1717
  314. Stream size                              : 52.3 KiB (0%)
  315. Language                                 : Malay
  316. Default                                  : No
  317. Forced                                   : No
  318. Text #21
  319. ID                                       : 23
  320. Format                                   : UTF-8
  321. Codec ID                                 : S_TEXT/UTF8
  322. Codec ID/Info                            : UTF-8 Plain Text
  323. Duration                                 : 2 h 1 min
  324. Bit rate                                 : 63 b/s
  325. Frame rate                               : 0.214 FPS
  326. Count of elements                        : 1557
  327. Stream size                              : 56.1 KiB (0%)
  328. Language                                 : Norwegian Bokmal
  329. Default                                  : No
  330. Forced                                   : No
  331. Text #22
  332. ID                                       : 24
  333. Format                                   : UTF-8
  334. Codec ID                                 : S_TEXT/UTF8
  335. Codec ID/Info                            : UTF-8 Plain Text
  336. Duration                                 : 2 h 1 min
  337. Bit rate                                 : 56 b/s
  338. Frame rate                               : 0.219 FPS
  339. Count of elements                        : 1595
  340. Stream size                              : 50.3 KiB (0%)
  341. Language                                 : Dutch
  342. Default                                  : No
  343. Forced                                   : No
  344. Text #23
  345. ID                                       : 25
  346. Format                                   : UTF-8
  347. Codec ID                                 : S_TEXT/UTF8
  348. Codec ID/Info                            : UTF-8 Plain Text
  349. Duration                                 : 2 h 1 min
  350. Bit rate                                 : 58 b/s
  351. Frame rate                               : 0.226 FPS
  352. Count of elements                        : 1647
  353. Stream size                              : 52.2 KiB (0%)
  354. Language                                 : Polish
  355. Default                                  : No
  356. Forced                                   : No
  357. Text #24
  358. ID                                       : 26
  359. Format                                   : UTF-8
  360. Codec ID                                 : S_TEXT/UTF8
  361. Codec ID/Info                            : UTF-8 Plain Text
  362. Duration                                 : 2 h 1 min
  363. Bit rate                                 : 60 b/s
  364. Frame rate                               : 0.239 FPS
  365. Count of elements                        : 1738
  366. Stream size                              : 53.8 KiB (0%)
  367. Title                                    : Brazil
  368. Language                                 : Portuguese (BR)
  369. Default                                  : No
  370. Forced                                   : No
  371. Text #25
  372. ID                                       : 27
  373. Format                                   : UTF-8
  374. Codec ID                                 : S_TEXT/UTF8
  375. Codec ID/Info                            : UTF-8 Plain Text
  376. Duration                                 : 2 h 1 min
  377. Bit rate                                 : 67 b/s
  378. Frame rate                               : 0.238 FPS
  379. Count of elements                        : 1733
  380. Stream size                              : 59.7 KiB (0%)
  381. Language                                 : Portuguese (PT)
  382. Default                                  : No
  383. Forced                                   : No
  384. Text #26
  385. ID                                       : 28
  386. Format                                   : UTF-8
  387. Codec ID                                 : S_TEXT/UTF8
  388. Codec ID/Info                            : UTF-8 Plain Text
  389. Duration                                 : 2 h 1 min
  390. Bit rate                                 : 71 b/s
  391. Frame rate                               : 0.228 FPS
  392. Count of elements                        : 1661
  393. Stream size                              : 63.3 KiB (0%)
  394. Language                                 : Romanian
  395. Default                                  : No
  396. Forced                                   : No
  397. Text #27
  398. ID                                       : 29
  399. Format                                   : UTF-8
  400. Codec ID                                 : S_TEXT/UTF8
  401. Codec ID/Info                            : UTF-8 Plain Text
  402. Duration                                 : 2 h 1 min
  403. Bit rate                                 : 108 b/s
  404. Frame rate                               : 0.238 FPS
  405. Count of elements                        : 1733
  406. Stream size                              : 96.7 KiB (0%)
  407. Language                                 : Russian
  408. Default                                  : No
  409. Forced                                   : No
  410. Text #28
  411. ID                                       : 30
  412. Format                                   : UTF-8
  413. Codec ID                                 : S_TEXT/UTF8
  414. Codec ID/Info                            : UTF-8 Plain Text
  415. Duration                                 : 2 h 1 min
  416. Bit rate                                 : 62 b/s
  417. Frame rate                               : 0.218 FPS
  418. Count of elements                        : 1591
  419. Stream size                              : 55.9 KiB (0%)
  420. Language                                 : Swedish
  421. Default                                  : No
  422. Forced                                   : No
  423. Text #29
  424. ID                                       : 31
  425. Format                                   : UTF-8
  426. Codec ID                                 : S_TEXT/UTF8
  427. Codec ID/Info                            : UTF-8 Plain Text
  428. Duration                                 : 2 h 1 min
  429. Bit rate                                 : 164 b/s
  430. Frame rate                               : 0.238 FPS
  431. Count of elements                        : 1736
  432. Stream size                              : 146 KiB (0%)
  433. Language                                 : Thai
  434. Default                                  : No
  435. Forced                                   : No
  436. Text #30
  437. ID                                       : 32
  438. Format                                   : UTF-8
  439. Codec ID                                 : S_TEXT/UTF8
  440. Codec ID/Info                            : UTF-8 Plain Text
  441. Duration                                 : 2 h 1 min
  442. Bit rate                                 : 64 b/s
  443. Frame rate                               : 0.232 FPS
  444. Count of elements                        : 1689
  445. Stream size                              : 57.5 KiB (0%)
  446. Language                                 : Turkish
  447. Default                                  : No
  448. Forced                                   : No
  449. Text #31
  450. ID                                       : 33
  451. Format                                   : UTF-8
  452. Codec ID                                 : S_TEXT/UTF8
  453. Codec ID/Info                            : UTF-8 Plain Text
  454. Duration                                 : 2 h 1 min
  455. Bit rate                                 : 85 b/s
  456. Frame rate                               : 0.234 FPS
  457. Count of elements                        : 1701
  458. Stream size                              : 75.7 KiB (0%)
  459. Language                                 : Vietnamese
  460. Default                                  : No
  461. Forced                                   : No
  462. Menu
  463. 01:56:30.000                             : en:End Credits
复制代码











回复

使用道具 举报

蓝光币
120
发表于 2023-1-13 09:06:33 | 显示全部楼层

既然你诚信诚意的推荐了,那我就勉为其难的看看吧!蓝光电影网不走平凡路。
回复 支持 反对

使用道具 举报

蓝光币
34
发表于 2023-1-13 23:42:15 | 显示全部楼层

我看不错噢 谢谢楼主!蓝光电影网越来越好!
回复 支持 反对

使用道具 举报

懒得打字嘛,点击右侧快捷回复 【右侧内容,后台自定义】
您需要登录后才可以回帖 登录 | 立即加入

本版积分规则

Archiver|小黑屋| 蓝光电影网 |网站地图

Copyright © 2021 Comsenz Inc. Powered by 蓝光电影网

蓝光电影网

本站内容由用户自主分享和转载自互联网,转载目的在于传递更多信息,并不代表本网赞同其观点和对其真实性负责。

如有侵权、违反国家法律政策行为,请联系我们,我们会第一时间及时清除和处理!

举报反馈邮箱:[email protected]

快速回复 返回顶部 返回列表