找回密码

蓝光电影网

查看: 162|回复: 2

[2160p-WEB] 黑疯婆子圣母归来[中文字幕].A.Madea.Homecoming.2022.2160p.NF.WEB-DL.x265.10bit.HDR.DDP5.1.Atmos-HHWEB 13.57GB

[复制链接]
蓝光币
1080
发表于 2023-1-12 16:18:35 | 显示全部楼层 |阅读模式


◎标  题 黑疯婆子圣母归来
◎译  名 黑疯婆子再掀波涛 / 欢庆归来梅迪亚
◎片  名 Tyler Perry’s A Madea Homecoming
◎年  代 2022
◎产  地 美国
◎类  别 笑剧
◎语  言 英语
◎上映日期 2022-02-25(美国)
◎IMDb评分 5.6/10 (4106人评价)
◎IMDb链接 https://www.imdb.com/title/tt14813966/
◎豆瓣评分 5.6/10 (97人评价)
◎豆瓣链接 https://movie.douban.com/subject/35752771/
◎片  长 105分钟
◎导  演 泰勒·派瑞 Tyler Perry
◎编  剧 泰勒·派瑞 Tyler Perry
◎演  员 泰勒·派瑞 Tyler Perry
       布伦丹·奥卡罗尔 Brendan O'Carroll
       Tamela J. Mann Tamela J. Mann
        David Mann
       凯西·戴维斯 Cassi Davis
       加布里埃尔·丹尼斯 Gabrielle Dennis
        Rickey Atkins Jr.
       杰伊·古铁雷斯 Jay Gutierrez
◎简  介
    Madea's back hallelujer. And she's not putting up with any nonsense as family drama erupts at her great-grandson's college graduation celebration.
  1. Video
  2. ID                                       : 1
  3. Format                                   : HEVC
  4. Format/Info                              : High Efficiency Video Coding
  5. Format profile                           : Main [email protected]@Main
  6. HDR format                               : SMPTE ST 2086, HDR10 compatible
  7. Codec ID                                 : V_MPEGH/ISO/HEVC
  8. Duration                                 : 1 h 45 min
  9. Bit rate                                 : 17.6 Mb/s
  10. Width                                    : 3 840 pixels
  11. Height                                   : 2 160 pixels
  12. Display aspect ratio                     : 16:9
  13. Frame rate mode                          : Constant
  14. Frame rate                               : 23.976 (24000/1001) FPS
  15. Color space                              : YUV
  16. Chroma subsampling                       : 4:2:0 (Type 2)
  17. Bit depth                                : 10 bits
  18. Bits/(Pixel*Frame)                       : 0.089
  19. Stream size                              : 13.0 GiB (96%)
  20. Default                                  : Yes
  21. Forced                                   : No
  22. Color range                              : Limited
  23. Color primaries                          : BT.2020
  24. Transfer characteristics                 : PQ
  25. Matrix coefficients                      : BT.2020 non-constant
  26. Mastering display color primaries        : Display P3
  27. Mastering display luminance              : min: 0.0001 cd/m2, max: 1000 cd/m2
  28. Maximum Content Light Level              : 906 cd/m2
  29. Maximum Frame-Average Light Level        : 110 cd/m2
  30. Audio
  31. ID                                       : 2
  32. Format                                   : E-AC-3 JOC
  33. Format/Info                              : Enhanced AC-3 with Joint Object Coding
  34. Commercial name                          : Dolby Digital Plus with Dolby Atmos
  35. Codec ID                                 : A_EAC3
  36. Duration                                 : 1 h 47 min
  37. Bit rate mode                            : Constant
  38. Bit rate                                 : 768 kb/s
  39. Channel(s)                               : 6 channels
  40. Channel layout                           : L R C LFE Ls Rs
  41. Sampling rate                            : 48.0 kHz
  42. Frame rate                               : 31.250 FPS (1536 SPF)
  43. Compression mode                         : Lossy
  44. Stream size                              : 589 MiB (4%)
  45. Title                                    : English
  46. Language                                 : English
  47. Service kind                             : Complete Main
  48. Default                                  : No
  49. Forced                                   : No
  50. Complexity index                         : 16
  51. Number of dynamic objects                : 15
  52. Bed channel count                        : 1 channel
  53. Bed channel configuration                : LFE
  54. Text #1
  55. ID                                       : 3
  56. Format                                   : UTF-8
  57. Codec ID                                 : S_TEXT/UTF8
  58. Codec ID/Info                            : UTF-8 Plain Text
  59. Duration                                 : 1 h 44 min
  60. Bit rate                                 : 181 b/s
  61. Frame rate                               : 0.358 FPS
  62. Count of elements                        : 2252
  63. Stream size                              : 140 KiB (0%)
  64. Title                                    : Arabic
  65. Language                                 : Arabic
  66. Default                                  : No
  67. Forced                                   : No
  68. Text #2
  69. ID                                       : 4
  70. Format                                   : UTF-8
  71. Codec ID                                 : S_TEXT/UTF8
  72. Codec ID/Info                            : UTF-8 Plain Text
  73. Duration                                 : 1 h 44 min
  74. Bit rate                                 : 107 b/s
  75. Frame rate                               : 0.362 FPS
  76. Count of elements                        : 2278
  77. Stream size                              : 82.9 KiB (0%)
  78. Title                                    : Chinese Simplified
  79. Language                                 : Chinese
  80. Default                                  : No
  81. Forced                                   : No
  82. Text #3
  83. ID                                       : 5
  84. Format                                   : UTF-8
  85. Codec ID                                 : S_TEXT/UTF8
  86. Codec ID/Info                            : UTF-8 Plain Text
  87. Duration                                 : 1 h 44 min
  88. Bit rate                                 : 106 b/s
  89. Frame rate                               : 0.381 FPS
  90. Count of elements                        : 2397
  91. Stream size                              : 81.7 KiB (0%)
  92. Title                                    : Chinese Traditional
  93. Language                                 : Chinese
  94. Default                                  : No
  95. Forced                                   : No
  96. Text #4
  97. ID                                       : 6
  98. Format                                   : UTF-8
  99. Codec ID                                 : S_TEXT/UTF8
  100. Codec ID/Info                            : UTF-8 Plain Text
  101. Duration                                 : 1 h 44 min
  102. Bit rate                                 : 94 b/s
  103. Frame rate                               : 0.342 FPS
  104. Count of elements                        : 2153
  105. Stream size                              : 72.3 KiB (0%)
  106. Title                                    : Czech
  107. Language                                 : Czech
  108. Default                                  : No
  109. Forced                                   : No
  110. Text #5
  111. ID                                       : 7
  112. Format                                   : UTF-8
  113. Codec ID                                 : S_TEXT/UTF8
  114. Codec ID/Info                            : UTF-8 Plain Text
  115. Duration                                 : 1 h 44 min
  116. Bit rate                                 : 91 b/s
  117. Frame rate                               : 0.325 FPS
  118. Count of elements                        : 2047
  119. Stream size                              : 70.1 KiB (0%)
  120. Title                                    : Danish
  121. Language                                 : Danish
  122. Default                                  : No
  123. Forced                                   : No
  124. Text #6
  125. ID                                       : 8
  126. Format                                   : UTF-8
  127. Codec ID                                 : S_TEXT/UTF8
  128. Codec ID/Info                            : UTF-8 Plain Text
  129. Duration                                 : 1 h 44 min
  130. Bit rate                                 : 91 b/s
  131. Frame rate                               : 0.292 FPS
  132. Count of elements                        : 1841
  133. Stream size                              : 70.0 KiB (0%)
  134. Title                                    : Dutch
  135. Language                                 : Dutch
  136. Default                                  : No
  137. Forced                                   : No
  138. Text #7
  139. ID                                       : 9
  140. Format                                   : UTF-8
  141. Codec ID                                 : S_TEXT/UTF8
  142. Codec ID/Info                            : UTF-8 Plain Text
  143. Duration                                 : 1 h 44 min
  144. Bit rate                                 : 96 b/s
  145. Frame rate                               : 0.390 FPS
  146. Count of elements                        : 2455
  147. Stream size                              : 74.4 KiB (0%)
  148. Title                                    : English Philippines
  149. Language                                 : English (PH)
  150. Default                                  : No
  151. Forced                                   : No
  152. Text #8
  153. ID                                       : 10
  154. Format                                   : UTF-8
  155. Codec ID                                 : S_TEXT/UTF8
  156. Codec ID/Info                            : UTF-8 Plain Text
  157. Duration                                 : 1 h 44 min
  158. Bit rate                                 : 127 b/s
  159. Frame rate                               : 0.397 FPS
  160. Count of elements                        : 2497
  161. Stream size                              : 97.8 KiB (0%)
  162. Title                                    : English [SDH]
  163. Language                                 : English
  164. Default                                  : No
  165. Forced                                   : No
  166. Text #9
  167. ID                                       : 11
  168. Format                                   : UTF-8
  169. Codec ID                                 : S_TEXT/UTF8
  170. Codec ID/Info                            : UTF-8 Plain Text
  171. Duration                                 : 1 h 44 min
  172. Bit rate                                 : 115 b/s
  173. Frame rate                               : 0.370 FPS
  174. Count of elements                        : 2331
  175. Stream size                              : 88.7 KiB (0%)
  176. Title                                    : English
  177. Language                                 : English
  178. Default                                  : No
  179. Forced                                   : No
  180. Text #10
  181. ID                                       : 12
  182. Format                                   : UTF-8
  183. Codec ID                                 : S_TEXT/UTF8
  184. Codec ID/Info                            : UTF-8 Plain Text
  185. Duration                                 : 1 h 44 min
  186. Bit rate                                 : 79 b/s
  187. Frame rate                               : 0.223 FPS
  188. Count of elements                        : 1404
  189. Stream size                              : 60.7 KiB (0%)
  190. Title                                    : Finnish
  191. Language                                 : Finnish
  192. Default                                  : No
  193. Forced                                   : No
  194. Text #11
  195. ID                                       : 13
  196. Format                                   : UTF-8
  197. Codec ID                                 : S_TEXT/UTF8
  198. Codec ID/Info                            : UTF-8 Plain Text
  199. Duration                                 : 1 h 44 min
  200. Bit rate                                 : 96 b/s
  201. Frame rate                               : 0.353 FPS
  202. Count of elements                        : 2220
  203. Stream size                              : 74.5 KiB (0%)
  204. Title                                    : French
  205. Language                                 : French
  206. Default                                  : No
  207. Forced                                   : No
  208. Text #12
  209. ID                                       : 14
  210. Format                                   : UTF-8
  211. Codec ID                                 : S_TEXT/UTF8
  212. Codec ID/Info                            : UTF-8 Plain Text
  213. Duration                                 : 1 h 44 min
  214. Bit rate                                 : 96 b/s
  215. Frame rate                               : 0.342 FPS
  216. Count of elements                        : 2152
  217. Stream size                              : 74.1 KiB (0%)
  218. Title                                    : German
  219. Language                                 : German
  220. Default                                  : No
  221. Forced                                   : No
  222. Text #13
  223. ID                                       : 15
  224. Format                                   : UTF-8
  225. Codec ID                                 : S_TEXT/UTF8
  226. Codec ID/Info                            : UTF-8 Plain Text
  227. Duration                                 : 1 h 44 min
  228. Bit rate                                 : 167 b/s
  229. Frame rate                               : 0.365 FPS
  230. Count of elements                        : 2299
  231. Stream size                              : 129 KiB (0%)
  232. Title                                    : Greek
  233. Language                                 : Greek
  234. Default                                  : No
  235. Forced                                   : No
  236. Text #14
  237. ID                                       : 16
  238. Format                                   : UTF-8
  239. Codec ID                                 : S_TEXT/UTF8
  240. Codec ID/Info                            : UTF-8 Plain Text
  241. Duration                                 : 1 h 44 min
  242. Bit rate                                 : 160 b/s
  243. Frame rate                               : 0.360 FPS
  244. Count of elements                        : 2265
  245. Stream size                              : 124 KiB (0%)
  246. Title                                    : Hebrew
  247. Language                                 : Hebrew
  248. Default                                  : No
  249. Forced                                   : No
  250. Text #15
  251. ID                                       : 17
  252. Format                                   : UTF-8
  253. Codec ID                                 : S_TEXT/UTF8
  254. Codec ID/Info                            : UTF-8 Plain Text
  255. Duration                                 : 1 h 44 min
  256. Bit rate                                 : 88 b/s
  257. Frame rate                               : 0.362 FPS
  258. Count of elements                        : 2278
  259. Stream size                              : 67.8 KiB (0%)
  260. Title                                    : Croatian
  261. Language                                 : Croatian
  262. Default                                  : No
  263. Forced                                   : No
  264. Text #16
  265. ID                                       : 18
  266. Format                                   : UTF-8
  267. Codec ID                                 : S_TEXT/UTF8
  268. Codec ID/Info                            : UTF-8 Plain Text
  269. Duration                                 : 1 h 44 min
  270. Bit rate                                 : 96 b/s
  271. Frame rate                               : 0.357 FPS
  272. Count of elements                        : 2247
  273. Stream size                              : 73.8 KiB (0%)
  274. Title                                    : Hungarian
  275. Language                                 : Hungarian
  276. Default                                  : No
  277. Forced                                   : No
  278. Text #17
  279. ID                                       : 19
  280. Format                                   : UTF-8
  281. Codec ID                                 : S_TEXT/UTF8
  282. Codec ID/Info                            : UTF-8 Plain Text
  283. Duration                                 : 1 h 44 min
  284. Bit rate                                 : 101 b/s
  285. Frame rate                               : 0.360 FPS
  286. Count of elements                        : 2266
  287. Stream size                              : 78.4 KiB (0%)
  288. Title                                    : Indonesian
  289. Language                                 : Indonesian
  290. Default                                  : No
  291. Forced                                   : No
  292. Text #18
  293. ID                                       : 20
  294. Format                                   : UTF-8
  295. Codec ID                                 : S_TEXT/UTF8
  296. Codec ID/Info                            : UTF-8 Plain Text
  297. Duration                                 : 1 h 44 min
  298. Bit rate                                 : 91 b/s
  299. Frame rate                               : 0.326 FPS
  300. Count of elements                        : 2050
  301. Stream size                              : 70.1 KiB (0%)
  302. Title                                    : Italian
  303. Language                                 : Italian
  304. Default                                  : No
  305. Forced                                   : No
  306. Text #19
  307. ID                                       : 21
  308. Format                                   : UTF-8
  309. Codec ID                                 : S_TEXT/UTF8
  310. Codec ID/Info                            : UTF-8 Plain Text
  311. Duration                                 : 1 h 44 min
  312. Bit rate                                 : 88 b/s
  313. Frame rate                               : 0.378 FPS
  314. Count of elements                        : 2380
  315. Stream size                              : 68.0 KiB (0%)
  316. Title                                    : Japanese
  317. Language                                 : Japanese
  318. Default                                  : No
  319. Forced                                   : No
  320. Text #20
  321. ID                                       : 22
  322. Format                                   : UTF-8
  323. Codec ID                                 : S_TEXT/UTF8
  324. Codec ID/Info                            : UTF-8 Plain Text
  325. Duration                                 : 1 h 44 min
  326. Bit rate                                 : 128 b/s
  327. Frame rate                               : 0.363 FPS
  328. Count of elements                        : 2286
  329. Stream size                              : 98.8 KiB (0%)
  330. Title                                    : Korean
  331. Language                                 : Korean
  332. Default                                  : No
  333. Forced                                   : No
  334. Text #21
  335. ID                                       : 23
  336. Format                                   : UTF-8
  337. Codec ID                                 : S_TEXT/UTF8
  338. Codec ID/Info                            : UTF-8 Plain Text
  339. Duration                                 : 1 h 44 min
  340. Bit rate                                 : 93 b/s
  341. Frame rate                               : 0.356 FPS
  342. Count of elements                        : 2238
  343. Stream size                              : 71.6 KiB (0%)
  344. Title                                    : Malay
  345. Language                                 : Malay
  346. Default                                  : No
  347. Forced                                   : No
  348. Text #22
  349. ID                                       : 24
  350. Format                                   : UTF-8
  351. Codec ID                                 : S_TEXT/UTF8
  352. Codec ID/Info                            : UTF-8 Plain Text
  353. Duration                                 : 1 h 44 min
  354. Bit rate                                 : 86 b/s
  355. Frame rate                               : 0.308 FPS
  356. Count of elements                        : 1941
  357. Stream size                              : 66.8 KiB (0%)
  358. Title                                    : Norwegian Bokmal
  359. Language                                 : Norwegian Bokmal
  360. Default                                  : No
  361. Forced                                   : No
  362. Text #23
  363. ID                                       : 25
  364. Format                                   : UTF-8
  365. Codec ID                                 : S_TEXT/UTF8
  366. Codec ID/Info                            : UTF-8 Plain Text
  367. Duration                                 : 1 h 44 min
  368. Bit rate                                 : 91 b/s
  369. Frame rate                               : 0.358 FPS
  370. Count of elements                        : 2254
  371. Stream size                              : 70.5 KiB (0%)
  372. Title                                    : Polish
  373. Language                                 : Polish
  374. Default                                  : No
  375. Forced                                   : No
  376. Text #24
  377. ID                                       : 26
  378. Format                                   : UTF-8
  379. Codec ID                                 : S_TEXT/UTF8
  380. Codec ID/Info                            : UTF-8 Plain Text
  381. Duration                                 : 1 h 44 min
  382. Bit rate                                 : 95 b/s
  383. Frame rate                               : 0.354 FPS
  384. Count of elements                        : 2227
  385. Stream size                              : 73.7 KiB (0%)
  386. Title                                    : Brazilian Portuguese
  387. Language                                 : Portuguese
  388. Default                                  : No
  389. Forced                                   : No
  390. Text #25
  391. ID                                       : 27
  392. Format                                   : UTF-8
  393. Codec ID                                 : S_TEXT/UTF8
  394. Codec ID/Info                            : UTF-8 Plain Text
  395. Duration                                 : 1 h 44 min
  396. Bit rate                                 : 96 b/s
  397. Frame rate                               : 0.333 FPS
  398. Count of elements                        : 2096
  399. Stream size                              : 74.2 KiB (0%)
  400. Title                                    : Portuguese
  401. Language                                 : Portuguese
  402. Default                                  : No
  403. Forced                                   : No
  404. Text #26
  405. ID                                       : 28
  406. Format                                   : UTF-8
  407. Codec ID                                 : S_TEXT/UTF8
  408. Codec ID/Info                            : UTF-8 Plain Text
  409. Duration                                 : 1 h 44 min
  410. Bit rate                                 : 102 b/s
  411. Frame rate                               : 0.356 FPS
  412. Count of elements                        : 2239
  413. Stream size                              : 79.1 KiB (0%)
  414. Title                                    : Romanian
  415. Language                                 : Romanian
  416. Default                                  : No
  417. Forced                                   : No
  418. Text #27
  419. ID                                       : 29
  420. Format                                   : UTF-8
  421. Codec ID                                 : S_TEXT/UTF8
  422. Codec ID/Info                            : UTF-8 Plain Text
  423. Duration                                 : 1 h 44 min
  424. Bit rate                                 : 155 b/s
  425. Frame rate                               : 0.359 FPS
  426. Count of elements                        : 2259
  427. Stream size                              : 120 KiB (0%)
  428. Title                                    : Russian
  429. Language                                 : Russian
  430. Default                                  : No
  431. Forced                                   : No
  432. Text #28
  433. ID                                       : 30
  434. Format                                   : UTF-8
  435. Codec ID                                 : S_TEXT/UTF8
  436. Codec ID/Info                            : UTF-8 Plain Text
  437. Duration                                 : 1 h 44 min
  438. Bit rate                                 : 88 b/s
  439. Frame rate                               : 0.379 FPS
  440. Count of elements                        : 2385
  441. Stream size                              : 68.0 KiB (0%)
  442. Title                                    : European Spanish
  443. Language                                 : Spanish
  444. Default                                  : No
  445. Forced                                   : No
  446. Text #29
  447. ID                                       : 31
  448. Format                                   : UTF-8
  449. Codec ID                                 : S_TEXT/UTF8
  450. Codec ID/Info                            : UTF-8 Plain Text
  451. Duration                                 : 1 h 44 min
  452. Bit rate                                 : 94 b/s
  453. Frame rate                               : 0.352 FPS
  454. Count of elements                        : 2214
  455. Stream size                              : 72.7 KiB (0%)
  456. Title                                    : Spanish
  457. Language                                 : Spanish
  458. Default                                  : No
  459. Forced                                   : No
  460. Text #30
  461. ID                                       : 32
  462. Format                                   : UTF-8
  463. Codec ID                                 : S_TEXT/UTF8
  464. Codec ID/Info                            : UTF-8 Plain Text
  465. Duration                                 : 1 h 44 min
  466. Bit rate                                 : 93 b/s
  467. Frame rate                               : 0.271 FPS
  468. Count of elements                        : 1708
  469. Stream size                              : 71.5 KiB (0%)
  470. Title                                    : Swedish
  471. Language                                 : Swedish
  472. Default                                  : No
  473. Forced                                   : No
  474. Text #31
  475. ID                                       : 33
  476. Format                                   : UTF-8
  477. Codec ID                                 : S_TEXT/UTF8
  478. Codec ID/Info                            : UTF-8 Plain Text
  479. Duration                                 : 1 h 44 min
  480. Bit rate                                 : 255 b/s
  481. Frame rate                               : 0.368 FPS
  482. Count of elements                        : 2319
  483. Stream size                              : 197 KiB (0%)
  484. Title                                    : Thai
  485. Language                                 : Thai
  486. Default                                  : No
  487. Forced                                   : No
  488. Text #32
  489. ID                                       : 34
  490. Format                                   : UTF-8
  491. Codec ID                                 : S_TEXT/UTF8
  492. Codec ID/Info                            : UTF-8 Plain Text
  493. Duration                                 : 1 h 44 min
  494. Bit rate                                 : 95 b/s
  495. Frame rate                               : 0.348 FPS
  496. Count of elements                        : 2192
  497. Stream size                              : 73.6 KiB (0%)
  498. Title                                    : Turkish
  499. Language                                 : Turkish
  500. Default                                  : No
  501. Forced                                   : No
  502. Text #33
  503. ID                                       : 35
  504. Format                                   : UTF-8
  505. Codec ID                                 : S_TEXT/UTF8
  506. Codec ID/Info                            : UTF-8 Plain Text
  507. Duration                                 : 1 h 44 min
  508. Bit rate                                 : 154 b/s
  509. Frame rate                               : 0.369 FPS
  510. Count of elements                        : 2316
  511. Stream size                              : 119 KiB (0%)
  512. Title                                    : Ukrainian
  513. Language                                 : Ukrainian
  514. Default                                  : No
  515. Forced                                   : No
  516. Text #34
  517. ID                                       : 36
  518. Format                                   : UTF-8
  519. Codec ID                                 : S_TEXT/UTF8
  520. Codec ID/Info                            : UTF-8 Plain Text
  521. Duration                                 : 1 h 44 min
  522. Bit rate                                 : 131 b/s
  523. Frame rate                               : 0.359 FPS
  524. Count of elements                        : 2263
  525. Stream size                              : 101 KiB (0%)
  526. Title                                    : Vietnamese
  527. Language                                 : Vietnamese
  528. Default                                  : No
  529. Forced                                   : No
复制代码











回复

使用道具 举报

蓝光币
1299
发表于 2023-1-13 07:55:04 | 显示全部楼层
不错,收下了。
回复 支持 反对

使用道具 举报

蓝光币
171
发表于 2023-1-13 20:53:31 | 显示全部楼层
谢谢分享~
回复

使用道具 举报

懒得打字嘛,点击右侧快捷回复 【右侧内容,后台自定义】
您需要登录后才可以回帖 登录 | 立即加入

本版积分规则

Archiver|小黑屋| 蓝光电影网 |网站地图

Copyright © 2021 Comsenz Inc. Powered by 蓝光电影网

蓝光电影网

本站内容由用户自主分享和转载自互联网,转载目的在于传递更多信息,并不代表本网赞同其观点和对其真实性负责。

如有侵权、违反国家法律政策行为,请联系我们,我们会第一时间及时清除和处理!

举报反馈邮箱:[email protected]

快速回复 返回顶部 返回列表