找回密码

蓝光电影网

查看: 616|回复: 12

[2160p-WEB] 365天:明日之欲[中文字幕].The.Next.365.Days.2022.2160p.NF.WEB-DL.x265.10bit.SDR.DDP5.1-XEBEC 16.02GB

[复制链接]
蓝光币
1084
发表于 2023-1-12 16:18:36 | 显示全部楼层 |阅读模式


◎标  题 365天:明日之欲
◎译  名 接下来的365天 / 黑帮大佬和我的365日3 / 再现之欲
◎片  名 The Next 365 Days
◎年  代 2022
◎产  地 波兰
◎类  别 剧情 / 恋爱 / 情色
◎语  言 波兰语
◎上映日期 2022-08-19(美国收集)
◎IMDb评分 2.7/10 (6855人评价)
◎IMDb链接 https://www.imdb.com/title/tt21106646/
◎豆瓣评分 4.4/10 (4767人评价)
◎豆瓣链接 https://movie.douban.com/subject/35952006/
◎片  长 112分钟
◎导  演 芭芭拉·比尔拉瓦斯 Barbara Bialowas
       托马斯·曼丁斯 Tomasz Mandes
◎编  剧 芭芭拉·比尔拉瓦斯 Barbara Bialowas
       托马什·克里马拉 Tomasz Klimala
       布兰卡·利平斯卡 Blanka Lipinska
       托马斯·曼丁斯 Tomasz Mandes
◎演  员 安娜·玛丽亚·西克拉克 Anna Maria Sieklucka
       米凯莱·莫罗尼 Michele Morrone
       西蒙·苏西纳 Simone Susinna
       玛格达莱娜·朗帕斯卡 Magdalena Lamparska
       欧塔萨拉利泽 Otar Saralidze
       埃瓦·卡斯珀齐克 Ewa Kasprzyk
       达里乌斯·贾库波斯基 Dariusz Jakubowski
       拉蒙·兰加 Ramón Langa
       托马斯·曼丁斯 Tomasz Mandes
       娜塔莉亚·西维茨 Natalia Siwiec
       卡罗琳娜·皮萨雷克 Karolina Pisarek
       布兰卡·利平斯卡 Blanka Lipinska
       丽贝卡·卡西拉吉 Rebecca Casiraghi
◎简  介
    劳拉和马西莫的关系朝不保夕,二人试图克服信赖题目,而固执的纳乔想方想法拆散二人。
  1. Video
  2. ID                                       : 1
  3. Format                                   : HEVC
  4. Format/Info                              : High Efficiency Video Coding
  5. Format profile                           : Main [email protected]@Main
  6. Codec ID                                 : V_MPEGH/ISO/HEVC
  7. Duration                                 : 1 h 53 min
  8. Bit rate                                 : 19.5 Mb/s
  9. Width                                    : 3 840 pixels
  10. Height                                   : 2 160 pixels
  11. Display aspect ratio                     : 16:9
  12. Frame rate mode                          : Constant
  13. Frame rate                               : 25.000 FPS
  14. Color space                              : YUV
  15. Chroma subsampling                       : 4:2:0
  16. Bit depth                                : 10 bits
  17. Bits/(Pixel*Frame)                       : 0.094
  18. Stream size                              : 15.5 GiB (97%)
  19. Default                                  : Yes
  20. Forced                                   : No
  21. Color range                              : Limited
  22. Color primaries                          : BT.709
  23. Transfer characteristics                 : BT.709
  24. Matrix coefficients                      : BT.709
  25. Audio
  26. ID                                       : 2
  27. Format                                   : E-AC-3
  28. Format/Info                              : Enhanced AC-3
  29. Commercial name                          : Dolby Digital Plus
  30. Codec ID                                 : A_EAC3
  31. Duration                                 : 1 h 53 min
  32. Bit rate mode                            : Constant
  33. Bit rate                                 : 640 kb/s
  34. Channel(s)                               : 6 channels
  35. Channel layout                           : L R C LFE Ls Rs
  36. Sampling rate                            : 48.0 kHz
  37. Frame rate                               : 31.250 FPS (1536 SPF)
  38. Compression mode                         : Lossy
  39. Stream size                              : 521 MiB (3%)
  40. Title                                    : English
  41. Language                                 : English
  42. Service kind                             : Complete Main
  43. Default                                  : Yes
  44. Forced                                   : No
  45. Text #1
  46. ID                                       : 3
  47. Format                                   : UTF-8
  48. Codec ID                                 : S_TEXT/UTF8
  49. Codec ID/Info                            : UTF-8 Plain Text
  50. Duration                                 : 1 h 52 min
  51. Bit rate                                 : 13 b/s
  52. Frame rate                               : 0.056 FPS
  53. Count of elements                        : 377
  54. Stream size                              : 11.5 KiB (0%)
  55. Title                                    : English (Forced)
  56. Language                                 : English
  57. Default                                  : Yes
  58. Forced                                   : Yes
  59. Text #2
  60. ID                                       : 4
  61. Format                                   : UTF-8
  62. Codec ID                                 : S_TEXT/UTF8
  63. Codec ID/Info                            : UTF-8 Plain Text
  64. Duration                                 : 1 h 52 min
  65. Bit rate                                 : 41 b/s
  66. Frame rate                               : 0.109 FPS
  67. Count of elements                        : 733
  68. Stream size                              : 34.1 KiB (0%)
  69. Title                                    : Arabic
  70. Language                                 : Arabic
  71. Default                                  : No
  72. Forced                                   : No
  73. Text #3
  74. ID                                       : 5
  75. Format                                   : UTF-8
  76. Codec ID                                 : S_TEXT/UTF8
  77. Codec ID/Info                            : UTF-8 Plain Text
  78. Duration                                 : 1 h 52 min
  79. Bit rate                                 : 23 b/s
  80. Frame rate                               : 0.112 FPS
  81. Count of elements                        : 753
  82. Stream size                              : 19.3 KiB (0%)
  83. Title                                    : Catalan
  84. Language                                 : Catalan
  85. Default                                  : No
  86. Forced                                   : No
  87. Text #4
  88. ID                                       : 6
  89. Format                                   : UTF-8
  90. Codec ID                                 : S_TEXT/UTF8
  91. Codec ID/Info                            : UTF-8 Plain Text
  92. Duration                                 : 1 h 52 min
  93. Bit rate                                 : 23 b/s
  94. Frame rate                               : 0.108 FPS
  95. Count of elements                        : 728
  96. Stream size                              : 19.5 KiB (0%)
  97. Title                                    : Czech
  98. Language                                 : Czech
  99. Default                                  : No
  100. Forced                                   : No
  101. Text #5
  102. ID                                       : 7
  103. Format                                   : UTF-8
  104. Codec ID                                 : S_TEXT/UTF8
  105. Codec ID/Info                            : UTF-8 Plain Text
  106. Duration                                 : 1 h 52 min
  107. Bit rate                                 : 25 b/s
  108. Frame rate                               : 0.096 FPS
  109. Count of elements                        : 648
  110. Stream size                              : 20.8 KiB (0%)
  111. Title                                    : Danish
  112. Language                                 : Danish
  113. Default                                  : No
  114. Forced                                   : No
  115. Text #6
  116. ID                                       : 8
  117. Format                                   : UTF-8
  118. Codec ID                                 : S_TEXT/UTF8
  119. Codec ID/Info                            : UTF-8 Plain Text
  120. Duration                                 : 1 h 52 min
  121. Bit rate                                 : 25 b/s
  122. Frame rate                               : 0.105 FPS
  123. Count of elements                        : 710
  124. Stream size                              : 20.9 KiB (0%)
  125. Title                                    : German
  126. Language                                 : German
  127. Default                                  : No
  128. Forced                                   : No
  129. Text #7
  130. ID                                       : 9
  131. Format                                   : UTF-8
  132. Codec ID                                 : S_TEXT/UTF8
  133. Codec ID/Info                            : UTF-8 Plain Text
  134. Duration                                 : 1 h 52 min
  135. Bit rate                                 : 41 b/s
  136. Frame rate                               : 0.108 FPS
  137. Count of elements                        : 725
  138. Stream size                              : 33.7 KiB (0%)
  139. Title                                    : Modern Greek (1453-)
  140. Language                                 : Greek
  141. Default                                  : No
  142. Forced                                   : No
  143. Text #8
  144. ID                                       : 10
  145. Format                                   : UTF-8
  146. Codec ID                                 : S_TEXT/UTF8
  147. Codec ID/Info                            : UTF-8 Plain Text
  148. Duration                                 : 1 h 52 min
  149. Bit rate                                 : 60 b/s
  150. Frame rate                               : 0.253 FPS
  151. Count of elements                        : 1702
  152. Stream size                              : 49.8 KiB (0%)
  153. Title                                    : English (SDH)
  154. Language                                 : English
  155. Default                                  : No
  156. Forced                                   : No
  157. Text #9
  158. ID                                       : 11
  159. Format                                   : UTF-8
  160. Codec ID                                 : S_TEXT/UTF8
  161. Codec ID/Info                            : UTF-8 Plain Text
  162. Duration                                 : 1 h 46 min
  163. Bit rate                                 : 28 b/s
  164. Frame rate                               : 0.121 FPS
  165. Count of elements                        : 778
  166. Stream size                              : 22.6 KiB (0%)
  167. Title                                    : Spanish
  168. Language                                 : Spanish
  169. Default                                  : No
  170. Forced                                   : No
  171. Text #10
  172. ID                                       : 12
  173. Format                                   : UTF-8
  174. Codec ID                                 : S_TEXT/UTF8
  175. Codec ID/Info                            : UTF-8 Plain Text
  176. Duration                                 : 1 h 52 min
  177. Bit rate                                 : 23 b/s
  178. Frame rate                               : 0.108 FPS
  179. Count of elements                        : 726
  180. Stream size                              : 19.1 KiB (0%)
  181. Title                                    : Spanish
  182. Language                                 : Spanish
  183. Default                                  : No
  184. Forced                                   : No
  185. Text #11
  186. ID                                       : 13
  187. Format                                   : UTF-8
  188. Codec ID                                 : S_TEXT/UTF8
  189. Codec ID/Info                            : UTF-8 Plain Text
  190. Duration                                 : 1 h 49 min
  191. Bit rate                                 : 34 b/s
  192. Frame rate                               : 0.140 FPS
  193. Count of elements                        : 919
  194. Stream size                              : 27.6 KiB (0%)
  195. Title                                    : Spanish (SDH)
  196. Language                                 : Spanish
  197. Default                                  : No
  198. Forced                                   : No
  199. Text #12
  200. ID                                       : 14
  201. Format                                   : UTF-8
  202. Codec ID                                 : S_TEXT/UTF8
  203. Codec ID/Info                            : UTF-8 Plain Text
  204. Duration                                 : 1 h 46 min
  205. Bit rate                                 : 24 b/s
  206. Frame rate                               : 0.116 FPS
  207. Count of elements                        : 745
  208. Stream size                              : 19.0 KiB (0%)
  209. Title                                    : Spanish
  210. Language                                 : Spanish
  211. Default                                  : No
  212. Forced                                   : No
  213. Text #13
  214. ID                                       : 15
  215. Format                                   : UTF-8
  216. Codec ID                                 : S_TEXT/UTF8
  217. Codec ID/Info                            : UTF-8 Plain Text
  218. Duration                                 : 1 h 52 min
  219. Bit rate                                 : 24 b/s
  220. Frame rate                               : 0.106 FPS
  221. Count of elements                        : 711
  222. Stream size                              : 20.2 KiB (0%)
  223. Title                                    : Basque
  224. Language                                 : Basque
  225. Default                                  : No
  226. Forced                                   : No
  227. Text #14
  228. ID                                       : 16
  229. Format                                   : UTF-8
  230. Codec ID                                 : S_TEXT/UTF8
  231. Codec ID/Info                            : UTF-8 Plain Text
  232. Duration                                 : 1 h 52 min
  233. Bit rate                                 : 23 b/s
  234. Frame rate                               : 0.105 FPS
  235. Count of elements                        : 706
  236. Stream size                              : 19.0 KiB (0%)
  237. Title                                    : Finnish
  238. Language                                 : Finnish
  239. Default                                  : No
  240. Forced                                   : No
  241. Text #15
  242. ID                                       : 17
  243. Format                                   : UTF-8
  244. Codec ID                                 : S_TEXT/UTF8
  245. Codec ID/Info                            : UTF-8 Plain Text
  246. Duration                                 : 1 h 52 min
  247. Bit rate                                 : 28 b/s
  248. Frame rate                               : 0.104 FPS
  249. Count of elements                        : 698
  250. Stream size                              : 23.2 KiB (0%)
  251. Title                                    : Filipino
  252. Language                                 : fil
  253. Default                                  : No
  254. Forced                                   : No
  255. Text #16
  256. ID                                       : 18
  257. Format                                   : UTF-8
  258. Codec ID                                 : S_TEXT/UTF8
  259. Codec ID/Info                            : UTF-8 Plain Text
  260. Duration                                 : 1 h 52 min
  261. Bit rate                                 : 24 b/s
  262. Frame rate                               : 0.107 FPS
  263. Count of elements                        : 724
  264. Stream size                              : 19.9 KiB (0%)
  265. Title                                    : French
  266. Language                                 : French
  267. Default                                  : No
  268. Forced                                   : No
  269. Text #17
  270. ID                                       : 19
  271. Format                                   : UTF-8
  272. Codec ID                                 : S_TEXT/UTF8
  273. Codec ID/Info                            : UTF-8 Plain Text
  274. Duration                                 : 1 h 52 min
  275. Bit rate                                 : 22 b/s
  276. Frame rate                               : 0.107 FPS
  277. Count of elements                        : 719
  278. Stream size                              : 18.1 KiB (0%)
  279. Title                                    : Galician
  280. Language                                 : Galician
  281. Default                                  : No
  282. Forced                                   : No
  283. Text #18
  284. ID                                       : 20
  285. Format                                   : UTF-8
  286. Codec ID                                 : S_TEXT/UTF8
  287. Codec ID/Info                            : UTF-8 Plain Text
  288. Duration                                 : 1 h 52 min
  289. Bit rate                                 : 41 b/s
  290. Frame rate                               : 0.105 FPS
  291. Count of elements                        : 709
  292. Stream size                              : 33.9 KiB (0%)
  293. Title                                    : Hebrew
  294. Language                                 : Hebrew
  295. Default                                  : No
  296. Forced                                   : No
  297. Text #19
  298. ID                                       : 21
  299. Format                                   : UTF-8
  300. Codec ID                                 : S_TEXT/UTF8
  301. Codec ID/Info                            : UTF-8 Plain Text
  302. Duration                                 : 1 h 52 min
  303. Bit rate                                 : 22 b/s
  304. Frame rate                               : 0.106 FPS
  305. Count of elements                        : 711
  306. Stream size                              : 18.2 KiB (0%)
  307. Title                                    : Croatian
  308. Language                                 : Croatian
  309. Default                                  : No
  310. Forced                                   : No
  311. Text #20
  312. ID                                       : 22
  313. Format                                   : UTF-8
  314. Codec ID                                 : S_TEXT/UTF8
  315. Codec ID/Info                            : UTF-8 Plain Text
  316. Duration                                 : 1 h 52 min
  317. Bit rate                                 : 23 b/s
  318. Frame rate                               : 0.105 FPS
  319. Count of elements                        : 708
  320. Stream size                              : 19.6 KiB (0%)
  321. Title                                    : Hungarian
  322. Language                                 : Hungarian
  323. Default                                  : No
  324. Forced                                   : No
  325. Text #21
  326. ID                                       : 23
  327. Format                                   : UTF-8
  328. Codec ID                                 : S_TEXT/UTF8
  329. Codec ID/Info                            : UTF-8 Plain Text
  330. Duration                                 : 1 h 52 min
  331. Bit rate                                 : 23 b/s
  332. Frame rate                               : 0.105 FPS
  333. Count of elements                        : 705
  334. Stream size                              : 19.0 KiB (0%)
  335. Title                                    : Indonesian
  336. Language                                 : Indonesian
  337. Default                                  : No
  338. Forced                                   : No
  339. Text #22
  340. ID                                       : 24
  341. Format                                   : UTF-8
  342. Codec ID                                 : S_TEXT/UTF8
  343. Codec ID/Info                            : UTF-8 Plain Text
  344. Duration                                 : 1 h 52 min
  345. Bit rate                                 : 22 b/s
  346. Frame rate                               : 0.107 FPS
  347. Count of elements                        : 723
  348. Stream size                              : 18.9 KiB (0%)
  349. Title                                    : Italian
  350. Language                                 : Italian
  351. Default                                  : No
  352. Forced                                   : No
  353. Text #23
  354. ID                                       : 25
  355. Format                                   : UTF-8
  356. Codec ID                                 : S_TEXT/UTF8
  357. Codec ID/Info                            : UTF-8 Plain Text
  358. Duration                                 : 1 h 52 min
  359. Bit rate                                 : 24 b/s
  360. Frame rate                               : 0.113 FPS
  361. Count of elements                        : 764
  362. Stream size                              : 20.2 KiB (0%)
  363. Title                                    : Japanese
  364. Language                                 : Japanese
  365. Default                                  : No
  366. Forced                                   : No
  367. Text #24
  368. ID                                       : 26
  369. Format                                   : UTF-8
  370. Codec ID                                 : S_TEXT/UTF8
  371. Codec ID/Info                            : UTF-8 Plain Text
  372. Duration                                 : 1 h 52 min
  373. Bit rate                                 : 31 b/s
  374. Frame rate                               : 0.108 FPS
  375. Count of elements                        : 727
  376. Stream size                              : 26.2 KiB (0%)
  377. Title                                    : Korean
  378. Language                                 : Korean
  379. Default                                  : No
  380. Forced                                   : No
  381. Text #25
  382. ID                                       : 27
  383. Format                                   : UTF-8
  384. Codec ID                                 : S_TEXT/UTF8
  385. Codec ID/Info                            : UTF-8 Plain Text
  386. Duration                                 : 1 h 52 min
  387. Bit rate                                 : 24 b/s
  388. Frame rate                               : 0.107 FPS
  389. Count of elements                        : 723
  390. Stream size                              : 20.4 KiB (0%)
  391. Title                                    : Malay (macrolanguage)
  392. Language                                 : Malay
  393. Default                                  : No
  394. Forced                                   : No
  395. Text #26
  396. ID                                       : 28
  397. Format                                   : UTF-8
  398. Codec ID                                 : S_TEXT/UTF8
  399. Codec ID/Info                            : UTF-8 Plain Text
  400. Duration                                 : 1 h 48 min
  401. Bit rate                                 : 26 b/s
  402. Frame rate                               : 0.103 FPS
  403. Count of elements                        : 669
  404. Stream size                              : 21.1 KiB (0%)
  405. Title                                    : Norwegian Bokm?l
  406. Language                                 : Norwegian Bokmal
  407. Default                                  : No
  408. Forced                                   : No
  409. Text #27
  410. ID                                       : 29
  411. Format                                   : UTF-8
  412. Codec ID                                 : S_TEXT/UTF8
  413. Codec ID/Info                            : UTF-8 Plain Text
  414. Duration                                 : 1 h 52 min
  415. Bit rate                                 : 22 b/s
  416. Frame rate                               : 0.102 FPS
  417. Count of elements                        : 687
  418. Stream size                              : 18.9 KiB (0%)
  419. Title                                    : Dutch
  420. Language                                 : Dutch
  421. Default                                  : No
  422. Forced                                   : No
  423. Text #28
  424. ID                                       : 30
  425. Format                                   : UTF-8
  426. Codec ID                                 : S_TEXT/UTF8
  427. Codec ID/Info                            : UTF-8 Plain Text
  428. Duration                                 : 1 h 50 min
  429. Bit rate                                 : 27 b/s
  430. Frame rate                               : 0.109 FPS
  431. Count of elements                        : 726
  432. Stream size                              : 22.2 KiB (0%)
  433. Title                                    : Polish
  434. Language                                 : Polish
  435. Default                                  : No
  436. Forced                                   : No
  437. Text #29
  438. ID                                       : 31
  439. Format                                   : UTF-8
  440. Codec ID                                 : S_TEXT/UTF8
  441. Codec ID/Info                            : UTF-8 Plain Text
  442. Duration                                 : 1 h 46 min
  443. Bit rate                                 : 12 b/s
  444. Frame rate                               : 0.058 FPS
  445. Count of elements                        : 368
  446. Stream size                              : 9.40 KiB (0%)
  447. Title                                    : Polish
  448. Language                                 : Polish
  449. Default                                  : No
  450. Forced                                   : No
  451. Text #30
  452. ID                                       : 32
  453. Format                                   : UTF-8
  454. Codec ID                                 : S_TEXT/UTF8
  455. Codec ID/Info                            : UTF-8 Plain Text
  456. Duration                                 : 1 h 52 min
  457. Bit rate                                 : 37 b/s
  458. Frame rate                               : 0.140 FPS
  459. Count of elements                        : 942
  460. Stream size                              : 30.7 KiB (0%)
  461. Title                                    : Polish (SDH)
  462. Language                                 : Polish
  463. Default                                  : No
  464. Forced                                   : No
  465. Text #31
  466. ID                                       : 33
  467. Format                                   : UTF-8
  468. Codec ID                                 : S_TEXT/UTF8
  469. Codec ID/Info                            : UTF-8 Plain Text
  470. Duration                                 : 1 h 52 min
  471. Bit rate                                 : 29 b/s
  472. Frame rate                               : 0.114 FPS
  473. Count of elements                        : 768
  474. Stream size                              : 23.9 KiB (0%)
  475. Title                                    : Portuguese
  476. Language                                 : Portuguese
  477. Default                                  : No
  478. Forced                                   : No
  479. Text #32
  480. ID                                       : 34
  481. Format                                   : UTF-8
  482. Codec ID                                 : S_TEXT/UTF8
  483. Codec ID/Info                            : UTF-8 Plain Text
  484. Duration                                 : 1 h 52 min
  485. Bit rate                                 : 23 b/s
  486. Frame rate                               : 0.107 FPS
  487. Count of elements                        : 720
  488. Stream size                              : 19.6 KiB (0%)
  489. Title                                    : Portuguese
  490. Language                                 : Portuguese
  491. Default                                  : No
  492. Forced                                   : No
  493. Text #33
  494. ID                                       : 35
  495. Format                                   : UTF-8
  496. Codec ID                                 : S_TEXT/UTF8
  497. Codec ID/Info                            : UTF-8 Plain Text
  498. Duration                                 : 1 h 52 min
  499. Bit rate                                 : 33 b/s
  500. Frame rate                               : 0.136 FPS
  501. Count of elements                        : 915
  502. Stream size                              : 27.3 KiB (0%)
  503. Title                                    : Portuguese (SDH)
  504. Language                                 : Portuguese
  505. Default                                  : No
  506. Forced                                   : No
  507. Text #34
  508. ID                                       : 36
  509. Format                                   : UTF-8
  510. Codec ID                                 : S_TEXT/UTF8
  511. Codec ID/Info                            : UTF-8 Plain Text
  512. Duration                                 : 1 h 52 min
  513. Bit rate                                 : 24 b/s
  514. Frame rate                               : 0.106 FPS
  515. Count of elements                        : 717
  516. Stream size                              : 20.4 KiB (0%)
  517. Title                                    : Portuguese
  518. Language                                 : Portuguese
  519. Default                                  : No
  520. Forced                                   : No
  521. Text #35
  522. ID                                       : 37
  523. Format                                   : UTF-8
  524. Codec ID                                 : S_TEXT/UTF8
  525. Codec ID/Info                            : UTF-8 Plain Text
  526. Duration                                 : 1 h 52 min
  527. Bit rate                                 : 27 b/s
  528. Frame rate                               : 0.105 FPS
  529. Count of elements                        : 706
  530. Stream size                              : 22.5 KiB (0%)
  531. Title                                    : Romanian
  532. Language                                 : Romanian
  533. Default                                  : No
  534. Forced                                   : No
  535. Text #36
  536. ID                                       : 38
  537. Format                                   : UTF-8
  538. Codec ID                                 : S_TEXT/UTF8
  539. Codec ID/Info                            : UTF-8 Plain Text
  540. Duration                                 : 1 h 52 min
  541. Bit rate                                 : 39 b/s
  542. Frame rate                               : 0.108 FPS
  543. Count of elements                        : 727
  544. Stream size                              : 32.4 KiB (0%)
  545. Title                                    : Russian
  546. Language                                 : Russian
  547. Default                                  : No
  548. Forced                                   : No
  549. Text #37
  550. ID                                       : 39
  551. Format                                   : UTF-8
  552. Codec ID                                 : S_TEXT/UTF8
  553. Codec ID/Info                            : UTF-8 Plain Text
  554. Duration                                 : 1 h 46 min
  555. Bit rate                                 : 26 b/s
  556. Frame rate                               : 0.105 FPS
  557. Count of elements                        : 673
  558. Stream size                              : 20.9 KiB (0%)
  559. Title                                    : Swedish
  560. Language                                 : Swedish
  561. Default                                  : No
  562. Forced                                   : No
  563. Text #38
  564. ID                                       : 40
  565. Format                                   : UTF-8
  566. Codec ID                                 : S_TEXT/UTF8
  567. Codec ID/Info                            : UTF-8 Plain Text
  568. Duration                                 : 1 h 52 min
  569. Bit rate                                 : 65 b/s
  570. Frame rate                               : 0.107 FPS
  571. Count of elements                        : 724
  572. Stream size                              : 54.2 KiB (0%)
  573. Title                                    : Thai
  574. Language                                 : Thai
  575. Default                                  : No
  576. Forced                                   : No
  577. Text #39
  578. ID                                       : 41
  579. Format                                   : UTF-8
  580. Codec ID                                 : S_TEXT/UTF8
  581. Codec ID/Info                            : UTF-8 Plain Text
  582. Duration                                 : 1 h 52 min
  583. Bit rate                                 : 24 b/s
  584. Frame rate                               : 0.099 FPS
  585. Count of elements                        : 668
  586. Stream size                              : 20.5 KiB (0%)
  587. Title                                    : Turkish
  588. Language                                 : Turkish
  589. Default                                  : No
  590. Forced                                   : No
  591. Text #40
  592. ID                                       : 42
  593. Format                                   : UTF-8
  594. Codec ID                                 : S_TEXT/UTF8
  595. Codec ID/Info                            : UTF-8 Plain Text
  596. Duration                                 : 1 h 52 min
  597. Bit rate                                 : 41 b/s
  598. Frame rate                               : 0.106 FPS
  599. Count of elements                        : 715
  600. Stream size                              : 34.0 KiB (0%)
  601. Title                                    : Ukrainian
  602. Language                                 : Ukrainian
  603. Default                                  : No
  604. Forced                                   : No
  605. Text #41
  606. ID                                       : 43
  607. Format                                   : UTF-8
  608. Codec ID                                 : S_TEXT/UTF8
  609. Codec ID/Info                            : UTF-8 Plain Text
  610. Duration                                 : 1 h 52 min
  611. Bit rate                                 : 39 b/s
  612. Frame rate                               : 0.106 FPS
  613. Count of elements                        : 716
  614. Stream size                              : 32.8 KiB (0%)
  615. Title                                    : Vietnamese
  616. Language                                 : Vietnamese
  617. Default                                  : No
  618. Forced                                   : No
  619. Text #42
  620. ID                                       : 44
  621. Format                                   : UTF-8
  622. Codec ID                                 : S_TEXT/UTF8
  623. Codec ID/Info                            : UTF-8 Plain Text
  624. Duration                                 : 1 h 52 min
  625. Bit rate                                 : 28 b/s
  626. Frame rate                               : 0.107 FPS
  627. Count of elements                        : 719
  628. Stream size                              : 23.3 KiB (0%)
  629. Title                                    : Simplified, Chinese
  630. Language                                 : Chinese
  631. Default                                  : No
  632. Forced                                   : No
  633. Text #43
  634. ID                                       : 45
  635. Format                                   : UTF-8
  636. Codec ID                                 : S_TEXT/UTF8
  637. Codec ID/Info                            : UTF-8 Plain Text
  638. Duration                                 : 1 h 52 min
  639. Bit rate                                 : 26 b/s
  640. Frame rate                               : 0.106 FPS
  641. Count of elements                        : 717
  642. Stream size                              : 21.9 KiB (0%)
  643. Title                                    : Traditional, Chinese
  644. Language                                 : Chinese
  645. Default                                  : No
  646. Forced                                   : No
  647. Menu
  648. 00:00:00.000                             : en:Part 01
  649. 01:48:31.450                             : en:Credits
复制代码











回复

使用道具 举报

蓝光币
185
发表于 2023-1-12 20:33:42 | 显示全部楼层
楼主发贴辛苦了,谢谢楼主分享!我觉得蓝光电影网是注册对了!
回复 支持 反对

使用道具 举报

蓝光币
257
发表于 2023-1-12 20:40:21 | 显示全部楼层

这个帖子不回对不起自己!我想我是一天也不能离开蓝光电影网。
回复 支持 反对

使用道具 举报

蓝光币
92
发表于 2023-1-12 23:10:11 | 显示全部楼层

这东西我收了!谢谢楼主!蓝光电影网真好!
回复 支持 反对

使用道具 举报

蓝光币
20
发表于 2023-1-13 00:14:46 | 显示全部楼层
楼主发贴辛苦了,谢谢楼主分享!我觉得蓝光电影网是注册对了!
回复 支持 反对

使用道具 举报

蓝光币
697
发表于 2023-1-13 03:34:49 | 显示全部楼层
哈哈,新片子,有海报,太爽了!
回复 支持 反对

使用道具 举报

蓝光币
30
发表于 2023-1-13 08:42:15 | 显示全部楼层
楼主发贴辛苦了,谢谢楼主分享!我觉得蓝光电影网是注册对了!
回复 支持 反对

使用道具 举报

蓝光币
21
发表于 2023-1-13 10:17:07 | 显示全部楼层
好看,谢谢
回复

使用道具 举报

蓝光币
192
发表于 2023-1-13 10:32:59 | 显示全部楼层
楼主发贴辛苦了,谢谢楼主分享!我觉得蓝光电影网是注册对了!
回复 支持 反对

使用道具 举报

蓝光币
11
发表于 2023-1-13 15:22:11 | 显示全部楼层
楼主发贴辛苦了,谢谢楼主分享!我觉得蓝光电影网是注册对了!
回复 支持 反对

使用道具 举报

懒得打字嘛,点击右侧快捷回复 【右侧内容,后台自定义】
您需要登录后才可以回帖 登录 | 立即加入

本版积分规则

Archiver|小黑屋| 蓝光电影网 |网站地图

Copyright © 2021 Comsenz Inc. Powered by 蓝光电影网

蓝光电影网

本站内容由用户自主分享和转载自互联网,转载目的在于传递更多信息,并不代表本网赞同其观点和对其真实性负责。

如有侵权、违反国家法律政策行为,请联系我们,我们会第一时间及时清除和处理!

举报反馈邮箱:[email protected]

快速回复 返回顶部 返回列表