找回密码

蓝光电影网

查看: 27|回复: 0

[其他] 752不只是一个数字.752.Is.Not.A.Number.2022.1080p.WEBRip.DD5.1.x264-NTb 4.91GB

[复制链接]
蓝光币
1078
发表于 2023-1-12 18:06:14 | 显示全部楼层 |阅读模式


◎译  名 752不但是一个数字
◎片  名 752 is Not a Number
◎年  代 2022
◎产  地 加拿大
◎语  言 英语
◎上映日期 2022-09(多伦多电影节)
◎IMDb链接 https://www.imdb.com/title/tt19816018/
◎豆瓣链接 https://movie.douban.com/subject/36060785/
◎片  长 90分钟
◎导  演 巴巴克·柏雅米 Babak Payami
◎编  剧 巴巴克·柏雅米 Babak Payami
◎简  介
  The Downing of the Ukrainian passenger flight 752 over the skies of Tehran on January 8, 2020 shook the world. All 176 passengers were killed, among them women, children, university students and academics, many of them residents or citizens of Canada. The tragedy occurred during renewed tensions between Iran and the United States following the killing of an Iranian general in I...
  1. Video
  2. ID                                       : 1
  3. Format                                   : AVC
  4. Format/Info                              : Advanced Video Codec
  5. Format profile                           : [email protected]
  6. Format settings                          : CABAC / 5 Ref Frames
  7. Format settings, CABAC                   : Yes
  8. Format settings, Reference frames        : 5 frames
  9. Codec ID                                 : V_MPEG4/ISO/AVC
  10. Duration                                 : 1 h 40 min
  11. Bit rate                                 : 6 605 kb/s
  12. Width                                    : 1 920 pixels
  13. Height                                   : 802 pixels
  14. Display aspect ratio                     : 2.40:1
  15. Frame rate mode                          : Constant
  16. Frame rate                               : 23.976 (24000/1001) FPS
  17. Color space                              : YUV
  18. Chroma subsampling                       : 4:2:0
  19. Bit depth                                : 8 bits
  20. Scan type                                : Progressive
  21. Bits/(Pixel*Frame)                       : 0.179
  22. Stream size                              : 4.64 GiB (94%)
  23. Default                                  : Yes
  24. Forced                                   : No
  25. Color range                              : Limited
  26. Color primaries                          : BT.709
  27. Transfer characteristics                 : BT.709
  28. Matrix coefficients                      : BT.709
  29. Audio
  30. ID                                       : 2
  31. Format                                   : AC-3
  32. Format/Info                              : Audio Coding 3
  33. Commercial name                          : Dolby Digital
  34. Codec ID                                 : A_AC3
  35. Duration                                 : 1 h 40 min
  36. Bit rate mode                            : Constant
  37. Bit rate                                 : 384 kb/s
  38. Channel(s)                               : 6 channels
  39. Channel layout                           : L R C LFE Ls Rs
  40. Sampling rate                            : 48.0 kHz
  41. Frame rate                               : 31.250 FPS (1536 SPF)
  42. Compression mode                         : Lossy
  43. Stream size                              : 276 MiB (5%)
  44. Language                                 : English
  45. Service kind                             : Complete Main
  46. Default                                  : Yes
  47. Forced                                   : No
  48. Text #1
  49. ID                                       : 3
  50. Format                                   : UTF-8
  51. Codec ID                                 : S_TEXT/UTF8
  52. Codec ID/Info                            : UTF-8 Plain Text
  53. Duration                                 : 1 h 31 min
  54. Bit rate                                 : 28 b/s
  55. Frame rate                               : 0.104 FPS
  56. Count of elements                        : 568
  57. Stream size                              : 19.2 KiB (0%)
  58. Title                                    : Forced
  59. Language                                 : English
  60. Default                                  : Yes
  61. Forced                                   : Yes
  62. Text #2
  63. ID                                       : 4
  64. Format                                   : UTF-8
  65. Codec ID                                 : S_TEXT/UTF8
  66. Codec ID/Info                            : UTF-8 Plain Text
  67. Duration                                 : 1 h 34 min
  68. Bit rate                                 : 62 b/s
  69. Frame rate                               : 0.203 FPS
  70. Count of elements                        : 1157
  71. Stream size                              : 43.2 KiB (0%)
  72. Language                                 : English
  73. Default                                  : No
  74. Forced                                   : No
  75. Text #3
  76. ID                                       : 5
  77. Format                                   : UTF-8
  78. Codec ID                                 : S_TEXT/UTF8
  79. Codec ID/Info                            : UTF-8 Plain Text
  80. Duration                                 : 1 h 37 min
  81. Bit rate                                 : 64 b/s
  82. Frame rate                               : 0.227 FPS
  83. Count of elements                        : 1334
  84. Stream size                              : 46.6 KiB (0%)
  85. Title                                    : SDH
  86. Language                                 : English
  87. Default                                  : No
  88. Forced                                   : No
复制代码











回复

使用道具 举报

懒得打字嘛,点击右侧快捷回复 【右侧内容,后台自定义】
您需要登录后才可以回帖 登录 | 立即加入

本版积分规则

Archiver|小黑屋| 蓝光电影网 |网站地图

Copyright © 2021 Comsenz Inc. Powered by 蓝光电影网

蓝光电影网

本站内容由用户自主分享和转载自互联网,转载目的在于传递更多信息,并不代表本网赞同其观点和对其真实性负责。

如有侵权、违反国家法律政策行为,请联系我们,我们会第一时间及时清除和处理!

举报反馈邮箱:[email protected]

快速回复 返回顶部 返回列表