找回密码

蓝光电影网

查看: 46|回复: 1

[动作] 共助2:国际.Confidential.Assignment.2.2022.KOREAN.1080p.AMZN.WEBRip.DDP5.1.x264-XEBEC 7.24GB

[复制链接]
蓝光币
1080
发表于 2023-1-12 18:06:15 | 显示全部楼层 |阅读模式


◎标  题 共助2:国际
◎译  名 机密同盟2(台) / 共助2:国际化 / 奥秘使命2:International (港) / Confidential Assignment 2: International / Confidential Assignment 2
◎片  名 공조2:인터내셔날
◎年  代 2022
◎产  地 韩国
◎类  别 行动
◎语  言 韩语
◎上映日期 2022-09-07(韩国)
◎IMDb评分 6.6/10 (882人评价)
◎IMDb链接 https://www.imdb.com/title/tt21867370/
◎豆瓣评分 7.1/10 (26179人评价)
◎豆瓣链接 https://movie.douban.com/subject/35240874/
◎片  长 128分钟
◎导  演 梨晳勳  Seok-hoon Lee
◎编  剧 梨晳勳  Seok-hoon Lee
       林成顺 Seong-Soon Im
◎演  员 玄彬 Hyun Bin
       柳海真 Hae-jin Yu
       林允儿 Yoona
       丹尼尔·海尼 Daniel Henney
       陈善圭 Seon-kyu Jin
       郑允荷 Jung Yun-Ha
       林成宰 Sungjae Im
       张荣男 Young-nam Jang
       李承勋 Lee Seung Hun
◎简  介
  为了追捕藏匿在韩国的国际犯罪构造,北韩刑警任铁零(玄彬 饰)投入新的配合搜寻使命。而韩国刑警姜镇泰(柳海真 饰)则在搜寻中因发生失误而被调至收集搜寻队,为了回到广域搜寻队,镇泰自愿担任铁零的伙伴。再次碰见铁零的敏英(林允儿 饰)又重燃对他的爱意。但是,铁哲与镇泰对相互心存思疑,但仍展开非常像样的搜寻行动。就在他们终究找到犯罪构造领袖张明俊(陈善圭 饰)的存身之处时,来自美国的FBI捕快杰克(丹尼尔·海尼 饰)忽然出现在他们眼前,照旧使人辛酸的韩国刑警;一样精采的北韩刑警;来自FBI的美国刑警,因各自的目标而团结一心的他们,将展开刺激的配合搜寻行动。
  1. Video
  2. ID                                       : 1
  3. Format                                   : AVC
  4. Format/Info                              : Advanced Video Codec
  5. Format profile                           : [email protected]
  6. Format settings                          : CABAC / 4 Ref Frames
  7. Format settings, CABAC                   : Yes
  8. Format settings, Reference frames        : 4 frames
  9. Codec ID                                 : V_MPEG4/ISO/AVC
  10. Duration                                 : 2 h 3 min
  11. Bit rate mode                            : Constant
  12. Bit rate                                 : 7 760 kb/s
  13. Nominal bit rate                         : 10 000 kb/s
  14. Width                                    : 1 920 pixels
  15. Height                                   : 800 pixels
  16. Display aspect ratio                     : 2.40:1
  17. Frame rate mode                          : Constant
  18. Frame rate                               : 25.000 FPS
  19. Color space                              : YUV
  20. Chroma subsampling                       : 4:2:0
  21. Bit depth                                : 8 bits
  22. Scan type                                : Progressive
  23. Bits/(Pixel*Frame)                       : 0.202
  24. Stream size                              : 6.68 GiB (92%)
  25. Default                                  : Yes
  26. Forced                                   : No
  27. Color range                              : Limited
  28. Color primaries                          : BT.709
  29. Transfer characteristics                 : BT.709
  30. Matrix coefficients                      : BT.709
  31. Audio
  32. ID                                       : 2
  33. Format                                   : E-AC-3
  34. Format/Info                              : Enhanced AC-3
  35. Commercial name                          : Dolby Digital Plus
  36. Codec ID                                 : A_EAC3
  37. Duration                                 : 2 h 3 min
  38. Bit rate mode                            : Constant
  39. Bit rate                                 : 640 kb/s
  40. Channel(s)                               : 6 channels
  41. Channel layout                           : L R C LFE Ls Rs
  42. Sampling rate                            : 48.0 kHz
  43. Frame rate                               : 31.250 FPS (1536 SPF)
  44. Compression mode                         : Lossy
  45. Stream size                              : 564 MiB (8%)
  46. Title                                    : Korean
  47. Language                                 : Korean
  48. Service kind                             : Complete Main
  49. Default                                  : Yes
  50. Forced                                   : No
  51. Text #1
  52. ID                                       : 3
  53. Format                                   : UTF-8
  54. Codec ID                                 : S_TEXT/UTF8
  55. Codec ID/Info                            : UTF-8 Plain Text
  56. Duration                                 : 1 h 59 min
  57. Bit rate                                 : 50 b/s
  58. Frame rate                               : 0.233 FPS
  59. Count of elements                        : 1669
  60. Stream size                              : 44.5 KiB (0%)
  61. Title                                    : English
  62. Language                                 : English
  63. Default                                  : No
  64. Forced                                   : No
  65. Text #2
  66. ID                                       : 4
  67. Format                                   : UTF-8
  68. Codec ID                                 : S_TEXT/UTF8
  69. Codec ID/Info                            : UTF-8 Plain Text
  70. Duration                                 : 1 h 18 min
  71. Bit rate                                 : 0 b/s
  72. Frame rate                               : 0.001 FPS
  73. Count of elements                        : 3
  74. Stream size                              : 70.0 Bytes (0%)
  75. Title                                    : English [Forced]
  76. Language                                 : English
  77. Default                                  : Yes
  78. Forced                                   : No
  79. Text #3
  80. ID                                       : 5
  81. Format                                   : UTF-8
  82. Codec ID                                 : S_TEXT/UTF8
  83. Codec ID/Info                            : UTF-8 Plain Text
  84. Duration                                 : 1 h 59 min
  85. Bit rate                                 : 122 b/s
  86. Frame rate                               : 0.264 FPS
  87. Count of elements                        : 1902
  88. Stream size                              : 107 KiB (0%)
  89. Title                                    : Thai
  90. Language                                 : Thai
  91. Default                                  : No
  92. Forced                                   : No
复制代码











回复

使用道具 举报

蓝光币
152
发表于 4 天前 | 显示全部楼层
谢谢分享,这个电影不错
回复 支持 反对

使用道具 举报

懒得打字嘛,点击右侧快捷回复 【右侧内容,后台自定义】
您需要登录后才可以回帖 登录 | 立即加入

本版积分规则

Archiver|小黑屋| 蓝光电影网 |网站地图

Copyright © 2021 Comsenz Inc. Powered by 蓝光电影网

蓝光电影网

本站内容由用户自主分享和转载自互联网,转载目的在于传递更多信息,并不代表本网赞同其观点和对其真实性负责。

如有侵权、违反国家法律政策行为,请联系我们,我们会第一时间及时清除和处理!

举报反馈邮箱:[email protected]

快速回复 返回顶部 返回列表